Music List for leoc
Last Update: Dec 17, 2017
Diff View Comments Add/Update a Comment Want List Email leoc
Add New Show Edit All Shows      
All Tradable Non-Tradable


Les Bros --- Approximate Hours: 1.25
Show Date Venue Media Type Media Count Sound Quality Notes
12/09/17 Asheville Civic Center FLAC 1 Les Bros Warren Haynes Christmas Jam Asheville Civic Center Asheville, North Carolina 12/9/2017 Source: Schoeps CCM4V's>Lunatec V2>Sound Devices 722 (24/44) FOB/DRFC/KFC/ZFC/AARP 40' From Stage, 6' High DSP: Sound Devices 722>Sound Forge 10.0>CD Wave>flac(16) ID3 Tagged In Foobar 2000 Recorded By: Z-Man Seeded By: Z-Man Disc I 01 Ain't Wastin' Time No More 02 *Jam > 03 *In Memory Of Elizabeth Reed > 04 Drum Solo > 05 *In Memory Of Elizabeth Reed 06 *#@Southbound 07 ^Blue Sky 08 Band Introductions 09 +Dreams 10 +Whippin' Post * With Mike Barnes On Guitar # With Craig Sorrells On Trmpet @ With With Brandon "Taz" Niedemire On Guitar ^ With With Charlie Starr On Guitar And Vocals + With Marcus King On Guitar Warren Haynes - Guitar And Vocals Jorgen Carlson - Bass Bruce Katz - Keyboards Lamar Williams Jr. - Vocals Paul Riddle - Drums Marc Quinones - Drums lesbros2017-12-09d01t01.flac:1ba6af74ab94c8ad5709edfb99f08891 lesbros2017-12-09d01t02.flac:77ebf9a9721b947dacd9d159fe459c0f lesbros2017-12-09d01t03.flac:a224ff14c07712a417cb068b37d2b5b5 lesbros2017-12-09d01t04.flac:f6cbc68ebecd2ecfd06ab8e95e051c66 lesbros2017-12-09d01t05.flac:6e751446d7d71fe8135ec4a41764cfcf lesbros2017-12-09d01t06.flac:a66ee0c2807b2bd8d122abdd71b3f7f0 lesbros2017-12-09d01t07.flac:41a5255269b169aeeb04df9d490493cd lesbros2017-12-09d01t08.flac:9535808e8d53d4befccc31a0f9b52962 lesbros2017-12-09d01t09.flac:d9c8250cf4811df36faec7b2900c18c6 lesbros2017-12-09d01t10.flac:a8f267a823404a7a430218414499de94 length expanded size cdr WAVE problems fmt ratio filename 8:01.12 84876668 B --- -- ---xx flac 0.4713 lesbros2017-12-09d01t01.flac 1:29.39 15791372 B --- -- ---xx flac 0.4193 lesbros2017-12-09d01t02.flac 11:44.29 124253852 B --- -- ---xx flac 0.5062 lesbros2017-12-09d01t03.flac 0:40.24 7112492 B --- -- ---xx flac 0.4913 lesbros2017-12-09d01t04.flac 1:51.61 19723916 B --- -- ---xx flac 0.3766 lesbros2017-12-09d01t05.flac 7:50.66 83063276 B --- -- ---xx flac 0.4905 lesbros2017-12-09d01t06.flac 9:38.21 102008636 B --- -- ---xx flac 0.4698 lesbros2017-12-09d01t07.flac 2:12.10 23308364 B --- -- ---xx flac 0.2940 lesbros2017-12-09d01t08.flac 11:29.61 121683116 B --- -- ---xx flac 0.4687 lesbros2017-12-09d01t09.flac 12:21.36 130797116 B --- -- ---xx flac 0.4977 lesbros2017-12-09d01t10.flac 67:19.59 712618808 B 0.4744 (10 files)

Robert Hunter --- Approximate Hours: 3.75
Show Date Venue Media Type Media Count Sound Quality Notes
03/13/03 The Swyer Theatre at The Egg 0
03/18/03 Town Hall CDR 2 A+ random pops throughout. these were audible through the PA and are not transfer artifacts. dropout @4:06 d2t11
09/28/13 Miller Symphony Hall FLAC 1

Zwan --- Approximate Hours: 1.25
Show Date Venue Media Type Media Count Sound Quality Notes
05/18/02 Tweeter Center CDR 1 A-


etreedb.org
For administrative requests email contact@etreedb.org
This website written by Tom H Anderson and maintained by the etreedb.org community.

Cached: Sun, 14 Jul 2024 01:32:22 EDT