Checksum 'shntool' for The Codetalkers 07/18/08
length expanded size cdr WAVE problems fmt ratio filename
1:11.06 12538556 B --- -- ---xx flac 0.2724 ct2008-07-18mtxd1t01.flac
11:16.39 119338172 B --- -- ---xx flac 0.5599 ct2008-07-18mtxd1t02.flac
9:43.36 102925916 B --- -- ---xx flac 0.5989 ct2008-07-18mtxd1t03.flac
15:01.72 159105788 B --- -- ---xx flac 0.5556 ct2008-07-18mtxd1t04.flac
7:44.60 81990764 B --- -- ---xx flac 0.6232 ct2008-07-18mtxd1t05.flac
9:57.51 105430796 B --- -- ---xx flac 0.5800 ct2008-07-18mtxd1t06.flac
18:11.72 192621788 B --- -- ---xx flac 0.5494 ct2008-07-18mtxd1t07.flac
15:12.02 160881548 B --- -- ---xx flac 0.5977 ct2008-07-18mtxd2t01.flac
12:56.27 136949948 B --- -- ---xx flac 0.4724 ct2008-07-18mtxd2t02.flac
12:19.40 130453724 B --- -- ---xx flac 0.6114 ct2008-07-18mtxd2t03.flac
11:37.60 123091964 B --- -- ---xx flac 0.5151 ct2008-07-18mtxd2t04.flac
12:20.63 130684220 B --- -- ---xx flac 0.6090 ct2008-07-18mtxd2t05.flac
12:56.03 136893500 B --- -- ---xx flac 0.5312 ct2008-07-18mtxd2t06.flac
11:51.10 125443964 B --- -- ---xx flac 0.5523 ct2008-07-18mtxd3t01.flac
6:43.17 71129228 B --- -- ---xx flac 0.5573 ct2008-07-18mtxd3t02.flac
5:29.43 58136780 B --- -- ---xx flac 0.5838 ct2008-07-18mtxd3t03.flac
174:34.01 1847616656 B 0.5615 (16 files)
etreedb.org
For administrative requests email contact@etreedb.org
This website written by Tom H Anderson and maintained by the etreedb.org community.

Cached: Thu, 20 Jun 2024 21:45:33 EDT