Grateful Dead 11/24/78
Capitol Theatre, Passaic, NJ
Source Summary
flac24; Source: Pre-fm master reel (The Best Of The Biscuit) Lineage: Reel > Teac-X2000R > Korg MR1 1bit/2.8mhz > AudioGate > wav 24/96 > flac 24
Grateful Dead
Capitol Theater
Passaic, NJ
11/24/1978

Source: Pre-fm master reel (The Best Of The Biscuit)
Lineage: Reel > Teac-X2000R > Korg MR1 1bit/2.8mhz > AudioGate > wav 24/96 > flac 24

01   KBFH intro >
02   GD intro > Passenger
03   Sugaree
04   I Need a Miracle >
05   Good Lovin'


Notes:

- other than maximise the levels with iZotope Ozone 4, no other audio processing has been carried out.
- product advertising has been removed


Comments:

My good friend, John Bleich, was given two reels from a friend at WVBU.  Unfortunately both reels turned
out to have the same contents, give or take.

Although there isn't much of the show here, I believe that this is the best quality available for these tracks, no
24 bit versions have previously been circulated.

NB: Passenger and Sugaree are in reverse order to how they were actually performed but this is the way reel
        was put together.




Thanks to John for providing the reels and John-Jay Hance, who baked the reels and transferred them.

edited by SIRMick
October 2009


shntool ouput:

    length     expanded size    cdr  WAVE problems  fmt   ratio  filename
     0:44.173      25443884 B   cxx   --   ---xx   flac  0.7322  gd1978-11-24t01.flac
     6:03.773     209533484 B   cxx   --   ---xx   flac  0.7405  gd1978-11-24t02.flac
    13:18.920     460177964 B   cxx   --   ---xx   flac  0.7276  gd1978-11-24t03.flac
     4:26.707     153623084 B   cxx   --   ---xx   flac  0.7437  gd1978-11-24t04.flac
     6:49.387     235806764 B   cxx   --   ---xx   flac  0.7450  gd1978-11-24t05.flac
    31:22.960    1084585180 B                            0.7362  (5 files)

flac fingerprints:

gd1978-11-24t01.flac:1427287ba6f758fdb843397d12e4cc51
gd1978-11-24t02.flac:bade18a9258105361b9a1eec635c362a
gd1978-11-24t03.flac:d2254dea8d212471641de523b89544bc
gd1978-11-24t04.flac:dcb2011e1408bee1c151143657bfe197
gd1978-11-24t05.flac:567e27d72193a1745eb0915fdafad476
b8879febe78db44c4ba0f3662f11e4b4 *gd1978-11-24t01.flac
bc1c8f2d38d18cfa0a4b91ab4a5bfe92 *gd1978-11-24t02.flac
6dba99b76bbdad5543acd2272911549f *gd1978-11-24t03.flac
daebe89aca1ddeb3460635014928a3fb *gd1978-11-24t04.flac
61402d2dff59160b6d036489f34fa724 *gd1978-11-24t05.flac
ffp
gd1978-11-24t01.flac:1427287ba6f758fdb843397d12e4cc51
gd1978-11-24t02.flac:bade18a9258105361b9a1eec635c362a
gd1978-11-24t03.flac:d2254dea8d212471641de523b89544bc
gd1978-11-24t04.flac:dcb2011e1408bee1c151143657bfe197
gd1978-11-24t05.flac:567e27d72193a1745eb0915fdafad476

Comments
etreedb.org
For administrative requests email contact@etreedb.org
This website written by Tom H Anderson and maintained by the etreedb.org community.

Cached: Tue, 17 Sep 2019 13:19:39 EDT