Grateful Dead 10/20/78
Winterland Arena, San Francisco, CA
Source Summary
flac16; Recorded by: Mike Martin and Mark Bunton with Chuck helping out. Our location was on the floor under the mirrored ball about 20-25 feet from the stage dead center. Equipment: 2 Sony ecm-280 microphones (shoulder high) > Teac PC-10 w/ Dolby > TDK SA-C90 tape. Transfer: Nakamichi CR3A w/ Dolby > Audigy 4 Pro @ 24/44.1 > Editing with NERO > Tracked With CD Wave > Dithered to 16 bit with Audacity > Flac (level 8)
The GRATEFUL DEAD
Live at the Winterland Ballroom
San Francisco, California
Friday - October 20, 1978

Recorded by:
Mike Martin and Mark Bunton with Chuck helping out.
Our location was on the floor under the mirrored ball about 20-25 feet from the stage dead center.

Equipment:
2 Sony ecm-280 microphones (shoulder high) > Teac PC-10 w/ Dolby > TDK SA-C90 tape

Transfer:
Nakamichi CR3A w/ Dolby > Audigy 4 Pro @ 24/44.1 > Editing with NERO > Tracked With CD Wave > Dithered to 16 bit with Audacity > Flac (level 8)


-first set-

01. Crowd intro
02. New New Minglewood Blues
03. They Love Each Other
04. Cassidy
05. Direwolf
06. El Paso
07. Tennessee Jed
08. It's All Over Now
09. Loser
10. Lazy Lightning

-second set-

01. Mississippi Half Step Toodeloo
02. Franklin's Tower
03. Dancing In The Streets
04. Drums
05. Space
06. Not Fade Away
07. Black Peter
08. Around and Around
-encore-
09. Shakedown Street

Notes:
The tape was flipped during Franklins Tower (disc 2 track 2 at 6:51).
The tape was again flipped in the Space > Not Fade Away transition (disc 3 track 4 at 0:12).
These breaks were spliced together with NERO wave editor.
NERO wave editor was also used to make volume adjustments and to surgically remove distracting claps one at a time.
Finally Audacity was used to dither the files to 16 bit and then the FLAC conversion was performed at level 8.
As a note, the Sony ecm-280 cardiod microphone specification page describes the frequency response as 30 to 18KHz.
No Eq or Noise reduction used.
There is a slight fluttering noise in the master cassettes during the quieter sections.
Thanks to John Musgrave for the use of his recording equipment.
Thanks to Bill Fridl for the permission to use his nice photos from these shows
Mike Martin September 2009


Pictures  1978 Bill Fridl.
For more Information visit: http://www.grateful-dead-photos.com/shows.html


instructions for making a 3 CD thick jewel box from the supplied artwork:
Size front and back cover artwork to 4.63 X 6.00 inches.
Size both of the inserts to 4.75 X 4.75 and line up the two side by side, then cut out and fold.

shntool 3.0.4
Copyright (C) 2000-2007 Jason Jordan

    length     expanded size    cdr  WAVE problems  fmt   ratio  filename
     0:37.31        6599756 B   ---   --   ---xx   flac  0.4435  gd1978-10-20-d1tr01.flac
     6:30.40       68890124 B   ---   --   ---xx   flac  0.6101  gd1978-10-20-d1tr02.flac
     8:48.49       93254492 B   ---   --   ---xx   flac  0.5762  gd1978-10-20-d1tr03.flac
     7:14.04       76567052 B   ---   --   ---xx   flac  0.6085  gd1978-10-20-d1tr04.flac
     5:37.04       59456252 B   ---   --   ---xx   flac  0.5907  gd1978-10-20-d1tr05.flac
     5:47.25       61269644 B   ---   --   ---xx   flac  0.5781  gd1978-10-20-d1tr06.flac
     9:12.23       97426940 B   ---   --   ---xx   flac  0.6041  gd1978-10-20-d1tr07.flac
     9:15.30       97972604 B   ---   --   ---xx   flac  0.5910  gd1978-10-20-d1tr08.flac
     8:57.43       94827980 B   ---   --   ---xx   flac  0.5440  gd1978-10-20-d1tr09.flac
     8:23.14       88762172 B   ---   --   ---xx   flac  0.6307  gd1978-10-20-d1tr10.flac
     9:00.71       95423036 B   ---   --   ---xx   flac  0.5929  gd1978-10-20-d2tr01.flac
    14:10.45      150045884 B   ---   --   ---xx   flac  0.5901  gd1978-10-20-d2tr02.flac
    19:57.71      211317836 B   ---   --   ---xx   flac  0.6367  gd1978-10-20-d3tr01.flac
     9:17.33       98332460 B   ---   --   ---xx   flac  0.5455  gd1978-10-20-d3tr02.flac
     3:50.63       40720220 B   ---   --   ---xx   flac  0.4628  gd1978-10-20-d3tr03.flac
     8:26.00       89258444 B   ---   --   ---xx   flac  0.5924  gd1978-10-20-d3tr04.flac
    10:35.50      112131644 B   ---   --   ---xx   flac  0.5703  gd1978-10-20-d3tr05.flac
     9:27.47      100129388 B   ---   --   ---xx   flac  0.6509  gd1978-10-20-d3tr06.flac
     7:36.30       80509004 B   ---   --   ---xx   flac  0.6295  gd1978-10-20-d3tr07.flac
   162:46.73     1722894932 B                            0.5949  (19 files)

ffp
gd1978-10-20-d1tr01.flac:c59fac9ecbfaf0474868c52731cc635c
gd1978-10-20-d1tr02.flac:f0fba086dab050f1f0cc9c2dc9e78baf
gd1978-10-20-d1tr03.flac:d43f150cc9edd50545a794c98d58817a
gd1978-10-20-d1tr04.flac:64dc95b3037d281df2ec38b82cce13fb
gd1978-10-20-d1tr05.flac:75b5586430a52dccd59c71d8fe414076
gd1978-10-20-d1tr06.flac:a1d872a781e2b04897943f14f4249092
gd1978-10-20-d1tr07.flac:acfba2e0ff42daf54898e7d35c9f0a17
gd1978-10-20-d1tr08.flac:d23ae05a673b58996ff0a3338afbc2c2
gd1978-10-20-d1tr09.flac:f8401711192892745d94816f467d77ec
gd1978-10-20-d1tr10.flac:73c3175dd2df8d196c234ee6d6d2f78c
gd1978-10-20-d2tr01.flac:6211351cee6c7e074cf10cad1eb51763
gd1978-10-20-d2tr02.flac:60daa51761dc85356f02453b8a66343c
gd1978-10-20-d3tr01.flac:068dad61d4180b5e26a1f531bf0f143b
gd1978-10-20-d3tr02.flac:f1da7aeecac5574ddcb683f0e33a36ba
gd1978-10-20-d3tr03.flac:16a22f030d7d41683c2732f6cd1b2910
gd1978-10-20-d3tr04.flac:eebcd43e49e304cae9f9c0926de4805f
gd1978-10-20-d3tr05.flac:cc89ee58f6c28a60d510c05cc0c21c49
gd1978-10-20-d3tr06.flac:374db89a1767314f4675f58597c5c4b8
gd1978-10-20-d3tr07.flac:3885a24081b9dee5a9335c5ff408a438
ad770b40fb84229de06a815a1f5bc8ba *gd1978-10-20-d1tr01.flac
08d6c6fb90de2b24c6ceedaecb23d08f *gd1978-10-20-d1tr02.flac
a50c54343ecdf83c1a07650fab5be8e7 *gd1978-10-20-d1tr03.flac
67067cc9621cdc4a3d63529434423941 *gd1978-10-20-d1tr04.flac
7f2f1decf7d6de50dda298a8b106ea36 *gd1978-10-20-d1tr05.flac
237ab3a0c1a3478a9a1c2d1649d74dc3 *gd1978-10-20-d1tr06.flac
d87cd04acb3941854a2b208884d91c81 *gd1978-10-20-d1tr07.flac
1ab2090c609e2b9027e07d380b0495e5 *gd1978-10-20-d1tr08.flac
fa88095adc2cd8ea907136467a0d3ed5 *gd1978-10-20-d1tr09.flac
9da4f244a1ba2b6afba6927cd592af4a *gd1978-10-20-d1tr10.flac
9338db37788d7a23e53815a19ceecbf6 *gd1978-10-20-d2tr01.flac
170b2c8bb6d3acf80cacfb37b14bc0b3 *gd1978-10-20-d2tr02.flac
8f2eecf806c767d30f5a91de25f098f3 *gd1978-10-20-d3tr01.flac
fc8fcdf5ee137a91e22cf4f074c70633 *gd1978-10-20-d3tr02.flac
bf57bb706d3ecca68a6456cc793366b2 *gd1978-10-20-d3tr03.flac
4737708bd7d54eb56fd2f0e47abeb364 *gd1978-10-20-d3tr04.flac
2ae046bcd24cb7656fba7e82010f463d *gd1978-10-20-d3tr05.flac
1911c6c20b50573712f725ff9ab837db *gd1978-10-20-d3tr06.flac
c420cffa7aae1961ada920bb65525357 *gd1978-10-20-d3tr07.flac

Comments
etreedb.org
For administrative requests email contact@etreedb.org
This website written by Tom H Anderson and maintained by the etreedb.org community.

Cached: Sun, 20 Oct 2019 02:49:20 EDT