Grateful Dead 10/21/78
Winterland Arena, San Francisco, CA
Source Summary
flac24; Recorded by: Mike Martin and Mark Bunton. Our location was on the floor under the mirrored ball about 20-25 feet from the stage dead center. Equipment: 2 Sony ecm-280 microphones (shoulder high) > Teac PC-10 w/ Dolby > TDK SA-C90 tape. Transfer: Nakamichi CR3A w/ Dolby > Audigy 4 Pro @ 24/44.1 > Editing with NERO > Tracked With CD Wave > Flac (level 8)
The GRATEFUL DEAD
Live at the Winterland Ballroom
San Francisco, California
Saturday � October 21, 1978


Recorded by:
Mike Martin and Mark Bunton.
Our location was on the floor under the mirrored ball about 20-25 feet from the stage dead center.

Equipment:
2 Sony ecm-280 microphones (shoulder high) > Teac PC-10 w/ Dolby > TDK SA-C90 tape

Transfer:
Nakamichi CR3A w/ Dolby > Audigy 4 Pro @ 24/44.1 > Editing with NERO > Tracked With CD Wave  > Flac (level 8)

-first set-

01. Mickey Hart Introduction
02. Unknown song title
03. Unknown song title
04. Olin Arageed
05. Promised Land
06. Sugaree
07. Passenger
08. Ramble On Rose
09. Looks Like Rain
10. Stagger Lee
11. I Need A Miracle

-second set-

01. Bertha
02. Good Lovin
03. It Must Have Been The Roses
04. Estimated Prophet
05. He�s Gone
06. Drums
07. Jam
08. Got My Mojo Working
09. The Other One
10. Stella Blue
11. Sugar Magnolia
12. Sunshine Daydream
-encore-
13. US Blues

Notes:

The tape was flipped during Drums (disc 3 track 1 at 9:46).
The tape was again flipped in the Sugar Magnolia > Sunshine Daydream transition.
To fill in the missing section 5 seconds from an alternate source recorded by Reinhart Hohlwein  (disc 3 track 7 from 0:01 to 0:06) was inserted.
These breaks were spliced together with NERO wave editor.
NERO wave editor was also used to make volume adjustments and to surgically remove distracting �claps� one at a time.
Finally the FLAC conversion was performed at level 8.
As a note, the Sony ecm-280 cardiod microphone specification page describes the frequency response as 30 to 18KHz.
No Eq or Noise reduction used.
There is a slight fluttering noise in the master cassettes during the quieter sections.
Thanks to John Musgrave for the use of his recording equipment.
Mike Martin September 2009


shntool 3.0.4
Copyright (C) 2000-2007 Jason Jordan

    length     expanded size    cdr  WAVE problems  fmt   ratio  filename
     1:03.618      16833308 B   cxx   --   ---xx   flac  0.6991  gd1978-10-21-d1tr01.flac
     3:06.276      49288556 B   cxx   --   ---xx   flac  0.6676  gd1978-10-21-d1tr02.flac
     3:05.600      49109804 B   cxx   --   ---xx   flac  0.6585  gd1978-10-21-d1tr03.flac
    18:07.076     287640236 B   cxx   --   ---xx   flac  0.6916  gd1978-10-21-d1tr04.flac
     7:01.778     111602444 B   cxx   --   ---xx   flac  0.7306  gd1978-10-21-d1tr05.flac
    16:27.573     261311948 B   cxx   --   ---xx   flac  0.6920  gd1978-10-21-d1tr06.flac
     6:07.333      97196444 B   cxx   --   ---xx   flac  0.7293  gd1978-10-21-d1tr07.flac
     9:02.134     143448656 B   cxx   --   ---xx   flac  0.7119  gd1978-10-21-d1tr08.flac
    11:38.880     184923692 B   cxx   --   ---xx   flac  0.6890  gd1978-10-21-d2tr01.flac
     9:29.049     150570380 B   cxx   --   ---xx   flac  0.7143  gd1978-10-21-d2tr02.flac
     8:13.324     130533692 B   cxx   --   ---xx   flac  0.7493  gd1978-10-21-d2tr03.flac
     7:08.098     113274716 B   cxx   --   ---xx   flac  0.7687  gd1978-10-21-d2tr04.flac
     9:39.724     153395132 B   cxx   --   ---xx   flac  0.7464  gd1978-10-21-d2tr05.flac
     8:16.338     131331020 B   cxx   --   ---xx   flac  0.6735  gd1978-10-21-d2tr06.flac
    14:38.276     232391756 B   cxx   --   ---xx   flac  0.7223  gd1978-10-21-d2tr07.flac
    10:35.309     168102782 B   cxx   --   ---xx   flac  0.6854  gd1978-10-21-d2tr08.flac
    14:56.640     237250988 B   cxx   --   ---xx   flac  0.7082  gd1978-10-21-d3tr01.flac
     5:38.613      89597132 B   cxx   --   ---xx   flac  0.7384  gd1978-10-21-d3tr02.flac
     7:26.969     118268012 B   cxx   --   ---xx   flac  0.7809  gd1978-10-21-d3tr03.flac
     7:18.036     115904252 B   cxx   --   ---xx   flac  0.7593  gd1978-10-21-d3tr04.flac
    11:55.867     189418364 B   cxx   --   ---xx   flac  0.7057  gd1978-10-21-d3tr05.flac
     5:35.502      88773932 B   cxx   --   ---xx   flac  0.7762  gd1978-10-21-d3tr06.flac
     4:37.476      73420076 B   cxx   --   ---xx   flac  0.7216  gd1978-10-21-d3tr07.flac
     6:03.081      96071294 B   cxx   --   ---xx   flac  0.7768  gd1978-10-21-d3tr08.flac
   207:12.568    3289658616 B                            0.7180  (24 files)

2fe2be971dd50c04b8b4bf00d4b00926 *gd1978-10-21-d1tr01.flac
6fa804122dcfd43b571f35161365b9df *gd1978-10-21-d1tr02.flac
8496580c862d03bde0e2dedddfa7bd2a *gd1978-10-21-d1tr03.flac
1989d12bc544073524759cf9d0aaf46a *gd1978-10-21-d1tr04.flac
b57e9f9d69b012e5ecbaf9a307a39adb *gd1978-10-21-d1tr05.flac
1d67c7f988e77673f569b9f9c8faa2db *gd1978-10-21-d1tr06.flac
e568057f38cf223b617a505669b5e1f1 *gd1978-10-21-d1tr07.flac
a6a3d2b51ccb47e21095c55e559481b0 *gd1978-10-21-d1tr08.flac
59c5ec8181c81fc71a4e6247a612ca02 *gd1978-10-21-d2tr01.flac
2027156b04ea86d74cee57af5b3beed5 *gd1978-10-21-d2tr02.flac
6cc23938054164734457f28da9b6e6e1 *gd1978-10-21-d2tr03.flac
c20eda25a1a2e20276b970cfeaaa4124 *gd1978-10-21-d2tr04.flac
c7898c6c2a165a2c0ed8219fc5efb350 *gd1978-10-21-d2tr05.flac
8df9df0f90833ac7dd8935fab4aef57e *gd1978-10-21-d2tr06.flac
6866b237dcaaf5955277a10b6f8ea381 *gd1978-10-21-d2tr07.flac
acef7efc5ef2b03cd3bf7b868161715c *gd1978-10-21-d2tr08.flac
852165340ceed15639ea847980937a69 *gd1978-10-21-d3tr01.flac
b8c32859340aab27dc17ee59fd0be466 *gd1978-10-21-d3tr02.flac
c79e84a9c918e27cfcdd3661414412ce *gd1978-10-21-d3tr03.flac
5fe7994159928af1cacd5b0973bce42b *gd1978-10-21-d3tr04.flac
a3c63397816d14551f080248a8f42331 *gd1978-10-21-d3tr05.flac
bfd017b20005d33b42eeb532e562209b *gd1978-10-21-d3tr06.flac
eb546ace07b81c57e7a2fdf3645a3c63 *gd1978-10-21-d3tr07.flac
48707146a68cab194f9d25b6a04012d9 *gd1978-10-21-d3tr08.flac
ffp
gd1978-10-21-d1tr01.flac:aa19a2197dd72634c915a14be843e2fc
gd1978-10-21-d1tr02.flac:6eb0171763526387f97cb4cd421ee1db
gd1978-10-21-d1tr03.flac:328b1a2bb06268c2dbc768ec091e463d
gd1978-10-21-d1tr04.flac:abb6f30fafaf93f8882a08d7903d9b8d
gd1978-10-21-d1tr05.flac:29fa06f53e15314703092f9788d0a2a2
gd1978-10-21-d1tr06.flac:41fbe56ec6abe62fd91cff639bacc1fa
gd1978-10-21-d1tr07.flac:4eb948766fc515ee642e0ef30dd0913a
gd1978-10-21-d1tr08.flac:453b88892d7ae7de43f6d7c6fb687f42
gd1978-10-21-d2tr01.flac:110008ddbbe4d05d5b23dcbf2f66c629
gd1978-10-21-d2tr02.flac:1a4983eded453c84413a0f9e3f29160a
gd1978-10-21-d2tr03.flac:0617c5ed05aac7be160d9e5fc7b3ed40
gd1978-10-21-d2tr04.flac:ed255aa000ad01008fe7513994d31810
gd1978-10-21-d2tr05.flac:4679b9c254b23acb1e92faf93a269c08
gd1978-10-21-d2tr06.flac:899ec58ab6a6967b118a4088b554a037
gd1978-10-21-d2tr07.flac:0a5e000a5c5c64c0deb26f97421e9f26
gd1978-10-21-d2tr08.flac:834468a782b102fa56d06f6f9632453c
gd1978-10-21-d3tr01.flac:63de3b3a260b531e73aa6b30f2c95a77
gd1978-10-21-d3tr02.flac:2a7b3efdac4b7f72abb763fc63186f0f
gd1978-10-21-d3tr03.flac:6156019e18d342006f59d611aea086fe
gd1978-10-21-d3tr04.flac:2729861b0190c9db906e16b97ff5f644
gd1978-10-21-d3tr05.flac:9759392937c4e54601de99edeb62ecb8
gd1978-10-21-d3tr06.flac:a516dce8554afde562490af539df0071
gd1978-10-21-d3tr07.flac:ba536192bbc393d1c1768cf8ec6c01ce
gd1978-10-21-d3tr08.flac:196e43377524abd34f5a3789f6ee2df2

Comments
etreedb.org
For administrative requests email contact@etreedb.org
This website written by Tom H Anderson and maintained by the etreedb.org community.

Cached: Sun, 20 Oct 2019 02:50:24 EDT