Grateful Dead 10/22/78
Winterland Arena, San Francisco, CA
Source Summary
flac16; Recorded by: Mike Martin and Mark Bunton. Our location was on the floor under the mirrored ball about 20-25 feet from the stage dead center. Equipment: 2 Sony ecm-280 microphones (shoulder high) > Teac PC-10 w/ Dolby > TDK SA-C90 tape. Transfer: Nakamichi CR3A w/ Dolby > Audigy 4 Pro @ 24/44.1 > Editing with NERO > Tracked With CD Wave > Dithered to 16 bit with Audacity > Flac (level 8).
The GRATEFUL DEAD
Live at the Winterland Ballroom
San Francisco, California
Sunday – October 22, 1978

Recorded by:
Mike Martin and Mark Bunton.
Our location was on the floor under the mirrored ball about 20-25 feet from the stage dead center.

Equipment:
2 Sony ecm-280 microphones (shoulder high) > Teac PC-10 w/ Dolby > TDK SA-C90 tape.

Transfer:
Nakamichi CR3A w/ Dolby > Audigy 4 Pro @ 24/44.1 > Editing with NERO > Tracked With CD Wave > Dithered to 16 bit with Audacity > Flac (level 8).


-first set-

01. Bill Graham and Mickey Hart Introduction
02. Unknown song title
03. Unknown song title
04. Olin Arageed
05. Deal
06. Me and My Uncle
07. Big River
08. Friend Of The Devil
09. New New Minglewood Blues
10. Dead Air
11. Pretty Peggy-O
12. Jack Straw

-second set-

01. Bill Graham speaks to crowd
02. Scarlet Begonias
03. Fire On The Mountain
04. Scarlet Begonias
05. Dead Air
06. Samson and Delilah
07. From The Heart Of Me
08. I Need A Miracle
09. Drums
10. Not Fade Away
11. Going Down The Road Feeling Bad
-encore-
12. Johnny B Goode


Notes:

Fifty-Nine distracting  “out of sync” claps deleted on disc 1 track 4.
The tape was flipped during Olin Arageed and the two pieces were spliced together (disc 1 track 4 at 17:00).
A microphone became unplugged during Olin Arageed and a psudo stereo mix was created (disc 1 track 4 from  18:45 to 19:30).
A piece of applause from an earlier track has been tacked onto the applause after New Minglewood Blues (disc 1 track 9 from 4:50 to 5:24).
The tape was again flipped during Fire On The Mountain .
To fill in the missing section 12 seconds from an alternate source recorded by Reinhart Hohlwein was inserted (disc 2 track 6 from 11:35 to 11:47).
Finally the last tape flip is during Not Fade Away (disc 3 track 6 at 0:36).
These breaks were spliced together with NERO wave editor.
NERO wave editor was also used to make volume adjustments and to surgically remove distracting “claps” one at a time.
Finally Audacity was used to dither the files to 16 bits and the FLAC conversion was performed at level 8.
As a note, the Sony ecm-280 cardiod microphone specification page describes the frequency response as 30 to 18KHz.
No Eq or Noise reduction used.
There is a slight fluttering noise in the master cassettes during the quieter sections.
Thanks to John Musgrave for the use of his recording equipment.
Thanks to Bill Fridl for the permission to use his nice photos from these shows
Mike Martin September 2009


Pictures © 1978 Bill Fridl.
For more Information visit: http://www.grateful-dead-photos.com/shows.html


instructions for making a 3 CD thick jewel box from the supplied artwork:
Size front and back cover artwork to 4.63 X 6.00 inches.
Size both of the inserts to 4.75 X 4.75 and line up the two side by side, then cut out and fold.

shntool 3.0.4
Copyright (C) 2000-2007 Jason Jordan

    length     expanded size    cdr  WAVE problems  fmt   ratio  filename
     2:08.66       22734476 B   ---   --   ---xx   flac  0.5718  gd1978-10-22-d1tr01.flac
     2:31.14       26669372 B   ---   --   ---xx   flac  0.5291  gd1978-10-22-d1tr02.flac
     3:38.35       38537564 B   ---   --   ---xx   flac  0.5147  gd1978-10-22-d1tr03.flac
    20:35.28      217919900 B   ---   --   ---xx   flac  0.5824  gd1978-10-22-d1tr04.flac
     8:39.27       91615148 B   ---   --   ---xx   flac  0.6090  gd1978-10-22-d1tr05.flac
     3:14.51       34341596 B   ---   --   ---xx   flac  0.6564  gd1978-10-22-d1tr06.flac
     9:41.07      102504908 B   ---   --   ---xx   flac  0.5873  gd1978-10-22-d1tr07.flac
    11:00.23      116478140 B   ---   --   ---xx   flac  0.5824  gd1978-10-22-d1tr08.flac
     5:24.44       57257132 B   ---   --   ---xx   flac  0.6413  gd1978-10-22-d1tr09.flac
     1:15.72       13399388 B   ---   --   ---xx   flac  0.4500  gd1978-10-22-d2tr01.flac
    12:26.27      131657948 B   ---   --   ---xx   flac  0.5272  gd1978-10-22-d2tr02.flac
     7:18.69       77425532 B   ---   --   ---xx   flac  0.6282  gd1978-10-22-d2tr03.flac
     1:06.45       11748284 B   ---   --   ---xx   flac  0.5927  gd1978-10-22-d2tr04.flac
    11:28.65      121516124 B   ---   --   ---xx   flac  0.6222  gd1978-10-22-d2tr05.flac
    11:47.71      124881836 B   ---   --   ---xx   flac  0.6087  gd1978-10-22-d2tr06.flac
     1:17.06       13596956 B   ---   --   ---xx   flac  0.6049  gd1978-10-22-d2tr07.flac
     2:01.53       21469100 B   ---   --   ---xx   flac  0.4536  gd1978-10-22-d3tr01.flac
    10:43.46      113533436 B   ---   --   ---xx   flac  0.6295  gd1978-10-22-d3tr02.flac
     5:51.48       62029340 B   ---   --   ---xx   flac  0.5537  gd1978-10-22-d3tr03.flac
     7:28.24       79083692 B   ---   --   ---xx   flac  0.6330  gd1978-10-22-d3tr04.flac
    13:07.18      138869180 B   ---   --   ---xx   flac  0.5871  gd1978-10-22-d3tr05.flac
    21:04.69      223131932 B   ---   --   ---xx   flac  0.6379  gd1978-10-22-d3tr06.flac
     8:52.62       93990668 B   ---   --   ---xx   flac  0.6414  gd1978-10-22-d3tr07.flac
     5:02.56       53404556 B   ---   --   ---xx   flac  0.6485  gd1978-10-22-d3tr08.flac
   187:48.51     1987796208 B                            0.5998  (24 files)
ebb0d00d7836bf0ca829716f5509bcd6 *gd1978-10-22-d1tr01.flac
02cdf47d44a89dba2ec9cc0866abe8f2 *gd1978-10-22-d1tr02.flac
af33eb628db4ef0239990d559fd59c42 *gd1978-10-22-d1tr03.flac
10ad92a549d3712f3091de5e3cbbabf0 *gd1978-10-22-d1tr04.flac
f2577c18ff6b3a29e51029f0e3f048c1 *gd1978-10-22-d1tr05.flac
d7c10b85a169feb6fb6bc1d1efae94c0 *gd1978-10-22-d1tr06.flac
598d4b77beebc3e66e9673c56cfdd8fb *gd1978-10-22-d1tr07.flac
533d6508f44dbfe9b91dc4b57c1130f0 *gd1978-10-22-d1tr08.flac
e9546b3ba6b99ca6aaca63fa8008895d *gd1978-10-22-d1tr09.flac
4167ebfccab908edf0b862d5c3efd0e4 *gd1978-10-22-d2tr01.flac
a051a473ee112be3d413ce31c4d752a4 *gd1978-10-22-d2tr02.flac
d64c3c001f31987b821cb7db2a5d4175 *gd1978-10-22-d2tr03.flac
e6842037977cfc3485bd9c8ba8014743 *gd1978-10-22-d2tr04.flac
aa97eadc9d841e07253a258c95ba4b42 *gd1978-10-22-d2tr05.flac
3b91e44cee0bd6ab3e175726a6fd1f46 *gd1978-10-22-d2tr06.flac
a53af9849e65d7b43852fe8434a7e9f0 *gd1978-10-22-d2tr07.flac
2012592e7bbf85a1fc96324159741d58 *gd1978-10-22-d3tr01.flac
95f05972d962b716fa477a94ecee320a *gd1978-10-22-d3tr02.flac
b4e88604b78abe928960846c23bd0791 *gd1978-10-22-d3tr03.flac
aea6353b54d97d2639201b5106c2ed21 *gd1978-10-22-d3tr04.flac
6ade08ff8b40b19195a0126ef3db1863 *gd1978-10-22-d3tr05.flac
a829a98e87ea41a0b743d5857d24886e *gd1978-10-22-d3tr06.flac
fe59bda0403103a57b47910463e4cb15 *gd1978-10-22-d3tr07.flac
51bcced9539cf6f050428398960a862a *gd1978-10-22-d3tr08.flac
ffp
gd1978-10-22-d1tr01.flac:efd75a3de222a47e9f47027d7351a676
gd1978-10-22-d1tr02.flac:206b7c2854f5517ab0fe572806614dc5
gd1978-10-22-d1tr03.flac:f7bc7ff8319828af6b71af76e3c7383c
gd1978-10-22-d1tr04.flac:b86fa4761f5c23cb8b6ee68b6acfd6f4
gd1978-10-22-d1tr05.flac:e0c0e311fcd31f0ee22ff98d9ff88548
gd1978-10-22-d1tr06.flac:fc88d7c95f4de2adaa1029cb7eb9a28f
gd1978-10-22-d1tr07.flac:bf5717a9a20dd589ed06cfd6ddf2f8d0
gd1978-10-22-d1tr08.flac:d32f8b750e0259f51eea03ab02f18493
gd1978-10-22-d1tr09.flac:d0e391d13e5858855926ed84faf86153
gd1978-10-22-d2tr01.flac:312c597445654993af6b92dd2463ec2a
gd1978-10-22-d2tr02.flac:f46dfedb997caf8d8de635b626c32fe0
gd1978-10-22-d2tr03.flac:4330622c29c8d5a4e2ea7c675221c4f1
gd1978-10-22-d2tr04.flac:d6e5e7d370371efbb3ff280a68441464
gd1978-10-22-d2tr05.flac:bf5f4fd970d307db75ab868637e90921
gd1978-10-22-d2tr06.flac:6b835665f6e2fae8cc37df5d8924c21e
gd1978-10-22-d2tr07.flac:40652547ec0e8746221c5c8ea325642e
gd1978-10-22-d3tr01.flac:7e4946cdab95dd8f973bb55c0c1d628a
gd1978-10-22-d3tr02.flac:1a538ca07dc6131b29ea404a2d4bb3ff
gd1978-10-22-d3tr03.flac:64c35ca9861e426e355c01616ba9e408
gd1978-10-22-d3tr04.flac:cd6e023876850eb47bcf09e90b9782a3
gd1978-10-22-d3tr05.flac:800399b0c45264ee77b870017f55984d
gd1978-10-22-d3tr06.flac:03d538723c752384b56ae4cdada1d0b4
gd1978-10-22-d3tr07.flac:a4e9d37410791cdcfc8f5f9e93f849f5
gd1978-10-22-d3tr08.flac:2a03ae8a5441a9c10f7c73aeb71a0d11

Comments
etreedb.org
For administrative requests email contact@etreedb.org
This website written by Tom H Anderson and maintained by the etreedb.org community.

Cached: Wed, 18 Sep 2019 12:32:53 EDT