Grateful Dead 10/22/78
Winterland Arena, San Francisco, CA
Source Summary
flac24; Recorded by: Mike Martin and Mark Bunton. Our location was on the floor under the mirrored ball about 20-25 feet from the stage dead center. Equipment: 2 Sony ecm-280 microphones (shoulder high) > Teac PC-10 w/ Dolby > TDK SA-C90 tape. Transfer: Nakamichi CR3A w/ Dolby > Audigy 4 Pro @ 24/44.1 > Editing with NERO > Tracked With CD Wave > Flac (level 8).
The GRATEFUL DEAD
Live at the Winterland Ballroom
San Francisco, California
Sunday � October 22, 1978

Recorded by:
Mike Martin and Mark Bunton.
Our location was on the floor under the mirrored ball about 20-25 feet from the stage dead center.

Equipment:
2 Sony ecm-280 microphones (shoulder high) > Teac PC-10 w/ Dolby > TDK SA-C90 tape.

Transfer:
Nakamichi CR3A w/ Dolby > Audigy 4 Pro @ 24/44.1 > Editing with NERO > Tracked With CD Wave > Flac (level 8).

-first set-

01. Bill Graham and Mickey Hart Introduction
02. Unknown song title
03. Unknown song title
04. Olin Arageed
05. Deal
06. Me and My Uncle
07. Big River
08. Friend Of The Devil
09. New New Minglewood Blues
10. Dead Air
11. Pretty Peggy-O
12. Jack Straw

-second set-

01. Bill Graham speaks to crowd
02. Scarlet Begonias
03. Fire On The Mountain
04. Scarlet Begonias
05. Dead Air
06. Samson and Delilah
07. From The Heart Of Me
08. I Need A Miracle
09. Drums
10. Not Fade Away
11. Going Down The Road Feeling Bad
-encore-
12. Johnny B Goode


Notes:

Fifty-Nine distracting  �out of sync� claps deleted on disc 1 track 4.
The tape was flipped during Olin Arageed and the two pieces were spliced together (disc 1 track 4 at 17:00).
A microphone became unplugged during Olin Arageed and a psudo stereo mix was created (disc 1 track 4 from  18:45 to 19:30).
A piece of applause from an earlier track has been tacked onto the applause after New Minglewood Blues (disc 1 track 9 from 4:50 to 5:24).
The tape was again flipped during Fire On The Mountain .
To fill in the missing section 12 seconds from an alternate source recorded by Reinhart Hohlwein was inserted (disc 2 track 6 from 11:35 to 11:47).
Finally the last tape flip is during Not Fade Away (disc 3 track 6 at 0:36).
These breaks were spliced together with NERO wave editor.
NERO wave editor was also used to make volume adjustments and to surgically remove distracting �claps� one at a time.
Finally the FLAC conversion was performed at level 8.
As a note, the Sony ecm-280 cardiod microphone specification page describes the frequency response as 30 to 18KHz.
No Eq or Noise reduction used.
There is a slight fluttering noise in the master cassettes during the quieter sections.
Thanks to John Musgrave for the use of his recording equipment.
Mike Martin September 2009

shntool 3.0.4
Copyright (C) 2000-2007 Jason Jordan

    length     expanded size    cdr  WAVE problems  fmt   ratio  filename
     2:08.889      34104044 B   cxx   --   ---xx   flac  0.7148  gd1978-10-22-d1tr01.flac
     2:31.182      40002860 B   cxx   --   ---xx   flac  0.6863  gd1978-10-22-d1tr02.flac
     3:38.471      57807500 B   cxx   --   ---xx   flac  0.6767  gd1978-10-22-d1tr03.flac
    20:35.369     326878652 B   cxx   --   ---xx   flac  0.7219  gd1978-10-22-d1tr04.flac
     8:39.360     137422700 B   cxx   --   ---xx   flac  0.7397  gd1978-10-22-d1tr05.flac
     3:14.676      51511196 B   cxx   --   ---xx   flac  0.7714  gd1978-10-22-d1tr06.flac
     9:41.102     153759692 B   cxx   --   ---xx   flac  0.7252  gd1978-10-22-d1tr07.flac
    11:00.302     174716012 B   cxx   --   ---xx   flac  0.7220  gd1978-10-22-d1tr08.flac
     5:24.590      85886642 B   cxx   --   ---xx   flac  0.7612  gd1978-10-22-d1tr09.flac
     1:15.964      20100236 B   cxx   --   ---xx   flac  0.6334  gd1978-10-22-d2tr01.flac
    12:26.356     197485724 B   cxx   --   ---xx   flac  0.6851  gd1978-10-22-d2tr02.flac
     7:18.916     116137100 B   cxx   --   ---xx   flac  0.7525  gd1978-10-22-d2tr03.flac
     1:06.604      17623580 B   cxx   --   ---xx   flac  0.7289  gd1978-10-22-d2tr04.flac
    11:28.862     182272988 B   cxx   --   ---xx   flac  0.7486  gd1978-10-22-d2tr05.flac
    11:47.947     187322732 B   cxx   --   ---xx   flac  0.7395  gd1978-10-22-d2tr06.flac
     1:17.078      20394860 B   cxx   --   ---xx   flac  0.7367  gd1978-10-22-d2tr07.flac
     2:01.716      32205980 B   cxx   --   ---xx   flac  0.6357  gd1978-10-22-d3tr01.flac
    10:43.609     170298956 B   cxx   --   ---xx   flac  0.7534  gd1978-10-22-d3tr02.flac
     5:51.636      93042812 B   cxx   --   ---xx   flac  0.7028  gd1978-10-22-d3tr03.flac
     7:28.329     118627868 B   cxx   --   ---xx   flac  0.7557  gd1978-10-22-d3tr04.flac
    13:07.236     208302572 B   cxx   --   ---xx   flac  0.7251  gd1978-10-22-d3tr05.flac
    21:04.916     334696700 B   cxx   --   ---xx   flac  0.7590  gd1978-10-22-d3tr06.flac
     8:52.827     140985980 B   cxx   --   ---xx   flac  0.7613  gd1978-10-22-d3tr07.flac
     5:02.739      80104856 B   cxx   --   ---xx   flac  0.7602  gd1978-10-22-d3tr08.flac
   187:48.674    2981692242 B                            0.7334  (24 files)



0244b5c192d351045f5fa2ab34a5e117 *gd1978-10-22-d1tr01.flac
4a8d33d9086ac4b0ac6dc662f635df9b *gd1978-10-22-d1tr02.flac
76303120c186bfe9d93d1f93b6d8b1fd *gd1978-10-22-d1tr03.flac
3d4ab3a9c648126882d461016f7cff76 *gd1978-10-22-d1tr04.flac
7b8a984ca09a628fafae89b8f6fb8f26 *gd1978-10-22-d1tr05.flac
f81379510f5d6030635051ef57864e24 *gd1978-10-22-d1tr06.flac
70654d803ffbf9714abe43de2943b33b *gd1978-10-22-d1tr07.flac
a8caa5efe05bea6e1a664329a5b404f1 *gd1978-10-22-d1tr08.flac
8e95223f9f9b6cf182ef41bb263b85d3 *gd1978-10-22-d1tr09.flac
5aa00758d417928791891931ce445442 *gd1978-10-22-d2tr01.flac
99de23ef47c53b2f5cc59d816530ab8c *gd1978-10-22-d2tr02.flac
e919e815dc3d2ee5eedd66051d27a17a *gd1978-10-22-d2tr03.flac
5b7ea5db03705b35974e37cddf65d350 *gd1978-10-22-d2tr04.flac
30116fffb4f4ecb7c9dada1bf84e79cc *gd1978-10-22-d2tr05.flac
cac05804780d7d493c856f20c308f5b7 *gd1978-10-22-d2tr06.flac
28e6c4a15019b27259ca596a63a0dfc0 *gd1978-10-22-d2tr07.flac
aa6f2a8dece4ad82a09029ade608d6ee *gd1978-10-22-d3tr01.flac
5cd6c82d14f0eb00f4cbafca380513df *gd1978-10-22-d3tr02.flac
25299806324119eb9f4f43d44a581c3e *gd1978-10-22-d3tr03.flac
534bdc11bb03ecaa7f9659b9af7555ec *gd1978-10-22-d3tr04.flac
ba5e1ca10ad7d44ae201a94f03816b10 *gd1978-10-22-d3tr05.flac
ff0d35a15070a5bcfa47bf0c5cf93fdc *gd1978-10-22-d3tr06.flac
abfc13720728438e4e40a47a760264db *gd1978-10-22-d3tr07.flac
24576aaf5abaf2549ff1be206f54555e *gd1978-10-22-d3tr08.flac
ffp
gd1978-10-22-d1tr01.flac:f73ed06db0e43daf99d001ad664389f4
gd1978-10-22-d1tr02.flac:a24daedc6f5c07ce4bb09c78bac6d216
gd1978-10-22-d1tr03.flac:297ab6fc7c070fa26538e9fe9c00e47d
gd1978-10-22-d1tr04.flac:24f9ac057404bd5a8e77f4b9d0931dd7
gd1978-10-22-d1tr05.flac:d4d6d7ef58b44e08745c97fdbb3242cf
gd1978-10-22-d1tr06.flac:fe9cb2feafa8556ab0dee0d6cfbf20e4
gd1978-10-22-d1tr07.flac:3ada11c64f9a376929ce885f7c1b7eae
gd1978-10-22-d1tr08.flac:8ba62b80dee733ff9e19b9bdb5a45d8d
gd1978-10-22-d1tr09.flac:07036431b9ced0a77a1dcf631ea43502
gd1978-10-22-d2tr01.flac:336654aeb5c383a4907f1522553b5f67
gd1978-10-22-d2tr02.flac:5eb0189883948a7452d5bde90a65227f
gd1978-10-22-d2tr03.flac:c5bd989f27a320cad444ad9eb9eb86d4
gd1978-10-22-d2tr04.flac:d7fc3a6279600d4394dc757dbd452bf4
gd1978-10-22-d2tr05.flac:14877addb28b2e5284e0408d5fdf0106
gd1978-10-22-d2tr06.flac:c48462caa60b8d92527d2478ce3045ba
gd1978-10-22-d2tr07.flac:dd7080b908dfaed552d8e0396203281a
gd1978-10-22-d3tr01.flac:f97550835d74794bb038ae37e8b76cb0
gd1978-10-22-d3tr02.flac:9c242b7a901ec6db513dd0a72e7f6416
gd1978-10-22-d3tr03.flac:cb244f02790d653899020a258dc8b969
gd1978-10-22-d3tr04.flac:956a741a93abbafc546afe533891f817
gd1978-10-22-d3tr05.flac:0fe5a6b882bb8d5ded1656ca6772abf7
gd1978-10-22-d3tr06.flac:34c37200fac8a81fa3ae9c1eefcac500
gd1978-10-22-d3tr07.flac:8ede20370826a01589ab4a26345e71ef
gd1978-10-22-d3tr08.flac:81e38069c022c398f0d9c0dc8e10e5e5

Comments
etreedb.org
For administrative requests email contact@etreedb.org
This website written by Tom H Anderson and maintained by the etreedb.org community.

Cached: Wed, 16 Oct 2019 18:53:06 EDT