Grateful Dead 01/08/78
Golden Hall, Community Concourse, San Diego, CA
Source Summary
flac16; Analog Audience Source: Master Audience Cassettes (MAC); Medium Stock Brands: MAC = 3 x Maxell UDXL II; Analog Lineage: 2 x AKG D224E's => Sony TC 158 >> MAC Analog Sound Preservation: MAC >> Nakamichi CR7a => Korg MR-1000 >> DSF [1-bit 5.6448 MHz Stereo] >> Korg AudioGate >> WAV [24/96]; Taped By: Reinhart Hohlwein; Transfer By: Bob Menke; Mastering By: Derek McCabe; MOTB Release: 0109
MOTB Release: 0109 16/44.1
Release Date: 2009-11-03
Band: Grateful Dead
Date: 1978-01-08 (Sunday)
Venue: Golden Hall
Location: San Diego, CA
Analog Audience Source: Master Audience Cassettes (MAC)
Medium Stock Brands: MAC = 3 x Maxell UDXL II
Analog Lineage: 2 x  AKG D224E's => Sony TC 158 >> MAC
Analog Sound Preservation: MAC >> Nakamichi CR7a => Korg MR-1000 >> DSF [1-bit 5.6448 MHz Stereo] >>  Korg AudioGate >> WAV [24/96]
Taped By: Reinhart Hohlwein
Transfer By: Bob Menke
Mastering By: Derek McCabe

Set 1:
d1t01 -  Jack Straw
d1t02 -  Mama Tried >
d1t03 -  Big River
d1t04 -  "Phil's almost in tune"
d1t05 -  Sunrise
d1t06 -  crowd
d1t07 -  It's All Over Now
d1t08 -  Looks Like Rain
d1t09 -  Lazy Lightning >
d1t10 -  Supplication

Set 2:
d1t11 -  Samson & Delilah
d2t01 -  Good Lovin'
d2t02 -  "Happy Birthday Uncle BoBo"
d2t03 -  Estimated Prophet >
d2t04 -  Drums >
d2t05 -  The Other One // >
d2t06 -  Truckin '>
d2t07 -  Sugar Magnolia
Encore:
d2t08 -  crowd
d2t09 -  Johnny B. Goode

Mastering Note:
tape flip at end of "The OTher One" patched with SBD shnid 14670.


shntool 3.0.4
Copyright (C) 2000-2007 Jason Jordan

   length     expanded size    cdr  WAVE problems  fmt   ratio  filename
    7:24.67       78479228 B   ---   --   ---xx   flac  0.5690  gd1978-01-08.fob.holwein.menke.motb.d1t01.flac
    2:59.57       31709708 B   ---   --   ---xx   flac  0.5570  gd1978-01-08.fob.holwein.menke.motb.d1t02.flac
    6:56.63       73530620 B   ---   --   ---xx   flac  0.5609  gd1978-01-08.fob.holwein.menke.motb.d1t03.flac
    0:33.06        5835356 B   ---   --   ---xx   flac  0.4713  gd1978-01-08.fob.holwein.menke.motb.d1t04.flac
    4:09.17       43963628 B   ---   --   ---xx   flac  0.5197  gd1978-01-08.fob.holwein.menke.motb.d1t05.flac
    0:59.53       10532300 B   ---   --   ---xx   flac  0.4728  gd1978-01-08.fob.holwein.menke.motb.d1t06.flac
    8:25.65       89234924 B   ---   --   ---xx   flac  0.5906  gd1978-01-08.fob.holwein.menke.motb.d1t07.flac
    9:28.16      100232876 B   ---   --   ---xx   flac  0.5278  gd1978-01-08.fob.holwein.menke.motb.d1t08.flac
    3:27.20       36561884 B   ---   --   ---xx   flac  0.5739  gd1978-01-08.fob.holwein.menke.motb.d1t09.flac
    6:27.34       68346812 B   ---   --   ---xx   flac  0.5962  gd1978-01-08.fob.holwein.menke.motb.d1t10.flac
    7:48.22       82606988 B   ---   --   ---xx   flac  0.5793  gd1978-01-08.fob.holwein.menke.motb.d1t11.flac
    6:21.13       67239020 B   ---   --   ---xx   flac  0.5714  gd1978-01-08.fob.holwein.menke.motb.d2t01.flac
    1:44.06       18359756 B   ---   --   ---xx   flac  0.5236  gd1978-01-08.fob.holwein.menke.motb.d2t02.flac
   13:56.39      147562172 B   ---   --   ---xx   flac  0.5384  gd1978-01-08.fob.holwein.menke.motb.d2t03.flac
    7:39.13       80998220 B   ---   --   ---xx   flac  0.5353  gd1978-01-08.fob.holwein.menke.motb.d2t04.flac
   16:12.67      171618428 B   ---   --   ---xx   flac  0.5480  gd1978-01-08.fob.holwein.menke.motb.d2t05.flac
    8:09.58       86396060 B   ---   --   ---xx   flac  0.5844  gd1978-01-08.fob.holwein.menke.motb.d2t06.flac
   11:25.21      120883436 B   ---   --   ---xx   flac  0.5832  gd1978-01-08.fob.holwein.menke.motb.d2t07.flac
    1:49.13       19258220 B   ---   --   ---xx   flac  0.4983  gd1978-01-08.fob.holwein.menke.motb.d2t08.flac
    4:45.09       50295212 B   ---   --   ---xx   flac  0.5914  gd1978-01-08.fob.holwein.menke.motb.d2t09.flac
  130:43.59     1383644848 B                            0.5598  (20 files)

ffp
gd1978-01-08.fob.holwein.menke.motb.d1t01.flac:620544a5b09893d19a23167d6b51e3d0
gd1978-01-08.fob.holwein.menke.motb.d1t02.flac:23c9ff4fd682698251c350aa75fa7bf1
gd1978-01-08.fob.holwein.menke.motb.d1t03.flac:db228b7d8649bfa64221014af1d1f1b8
gd1978-01-08.fob.holwein.menke.motb.d1t04.flac:5f4aa0fea5e6c7f4c18bbe072b5508c0
gd1978-01-08.fob.holwein.menke.motb.d1t05.flac:d39740ee26a7754cbeb6af59b10482f5
gd1978-01-08.fob.holwein.menke.motb.d1t06.flac:5a1de41e46c530025f3b6898c275a55d
gd1978-01-08.fob.holwein.menke.motb.d1t07.flac:4a07baaae71d7eabb1ca341d0eb788fb
gd1978-01-08.fob.holwein.menke.motb.d1t08.flac:bd12ddffe16da9a48c5561389c08f2fa
gd1978-01-08.fob.holwein.menke.motb.d1t09.flac:4d222ebe63d779e85f4a7ed0df979e38
gd1978-01-08.fob.holwein.menke.motb.d1t10.flac:2cecf3e220c56d898cdee9c5302f925c
gd1978-01-08.fob.holwein.menke.motb.d1t11.flac:32ada071dcc78f1d30cec65083e55a2c
gd1978-01-08.fob.holwein.menke.motb.d2t01.flac:e966fd4fab6008c58598b693d91c3540
gd1978-01-08.fob.holwein.menke.motb.d2t02.flac:56a1fae39fd4b17536639d715dea976b
gd1978-01-08.fob.holwein.menke.motb.d2t03.flac:2b4abf9475eb3e36370109e2a485f2fc
gd1978-01-08.fob.holwein.menke.motb.d2t04.flac:b0e595fe0d4e37987209d139e71b1f99
gd1978-01-08.fob.holwein.menke.motb.d2t05.flac:30506938ffb6112fabdbea933b8b63eb
gd1978-01-08.fob.holwein.menke.motb.d2t06.flac:ef868adf51f90624a76dda1005acdce8
gd1978-01-08.fob.holwein.menke.motb.d2t07.flac:59e74f0ad567db7dbadedbc0bfb401e3
gd1978-01-08.fob.holwein.menke.motb.d2t08.flac:1606ab996211b10c25f93fce9965a964
gd1978-01-08.fob.holwein.menke.motb.d2t09.flac:5d5928e939af873cd52938f070b01278
53bd39db4e4ed8d17604eeeb8af592ba *gd1978-01-08.fob.holwein.menke.motb.d1t01.flac
43b4c82c94fee3fd316e98627220ebcc *gd1978-01-08.fob.holwein.menke.motb.d1t02.flac
6cc8544663c34bd8c012050e9e5c36c6 *gd1978-01-08.fob.holwein.menke.motb.d1t03.flac
b1ead87b9ceafb36f5643e5d1e24f6cc *gd1978-01-08.fob.holwein.menke.motb.d1t04.flac
1b65b9bbb2479eb1a06132cb73d8d7c3 *gd1978-01-08.fob.holwein.menke.motb.d1t05.flac
7def30a44f6fe99d5fd54c29d622ed29 *gd1978-01-08.fob.holwein.menke.motb.d1t06.flac
69055569768416bf308254a9490df080 *gd1978-01-08.fob.holwein.menke.motb.d1t07.flac
a99f384202bd8d3ceb7d925b59ae7da1 *gd1978-01-08.fob.holwein.menke.motb.d1t08.flac
93c76a505eab15c5e6f3a56d60bdf027 *gd1978-01-08.fob.holwein.menke.motb.d1t09.flac
ea2138ae586431ad1b26d8eeee227875 *gd1978-01-08.fob.holwein.menke.motb.d1t10.flac
d3def30e9a7cf711d2b4c7c3b96bcf99 *gd1978-01-08.fob.holwein.menke.motb.d1t11.flac
c8fa5f31a1f4d062b324b973450dc99d *gd1978-01-08.fob.holwein.menke.motb.d2t01.flac
a2414ef5f287beb00095693535b566d0 *gd1978-01-08.fob.holwein.menke.motb.d2t02.flac
1843d423aed9b1a15f946d39412051e9 *gd1978-01-08.fob.holwein.menke.motb.d2t03.flac
06d964e8d97eed40e83104ade681f0f1 *gd1978-01-08.fob.holwein.menke.motb.d2t04.flac
4816db5e439526a59fe06a92d9d103e3 *gd1978-01-08.fob.holwein.menke.motb.d2t05.flac
a48240104942468683cae8566dc25894 *gd1978-01-08.fob.holwein.menke.motb.d2t06.flac
13e82781c5caab4a001f28fda0b9180e *gd1978-01-08.fob.holwein.menke.motb.d2t07.flac
15e8ef31b8597ee045d4927fbb4689b3 *gd1978-01-08.fob.holwein.menke.motb.d2t08.flac
172d0e04cbe87bfc36218f74a5515a0e *gd1978-01-08.fob.holwein.menke.motb.d2t09.flac

Comments
etreedb.org
For administrative requests email contact@etreedb.org
This website written by Tom H Anderson and maintained by the etreedb.org community.

Cached: Sun, 20 Oct 2019 01:59:57 EDT