The Codetalkers 11/26/08
Smith's Olde Bar, Atlanta, GA
Source # 103009
Entered by Mark Goldey
Checksums ffp
Disc Counts 1 / 1
Media Size
Date Circulated
Date Added
11/28/08
12/01/2009
Download Text | Download Zip
Other Sources
Source Summary
Source: Schoeps CCM4V'S(din)>Lunatec V2>Sound Devices 722 (24/48)
Location: FOB/DFC/KFC/ZFC/AARP 16' From Stage, 7' High
DSP: Sound Devices 722>Sound Forge 7.0>CD Wave>flac(16)
Recorded By: Z-Man
The Codetalkers
Smith's Olde Bar
Atlanta, Georgia
11/26/2008

Source: Schoeps CCM4V'S(din)>Lunatec V2>Sound Devices 722 (24/48)
Location: FOB/DFC/KFC/ZFC/AARP 16' From Stage, 7' High
DSP: Sound Devices 722>Sound Forge 7.0>CD Wave>flac(16)
Recorded By: Z-Man
Seeded By: Z-Man

Disc I

01 Overdrive >
02 Just of Day
03 Belly Flop >
04 Hold on Tight >
05 Mary Jane >
06 Time for the Future >
07 Takin' Over California >
08 Saturn

shntool 3.0.4
Copyright (C) 2000-2007 Jason Jordan

    length     expanded size    cdr  WAVE problems  fmt   ratio  filename
     7:41.66       81475676 B   ---   --   ---xx   flac  0.4961  codetalkers2008-11-26d01t01.flac
     5:33.06       58755356 B   ---   --   ---xx   flac  0.5285  codetalkers2008-11-26d01t02.flac
     8:40.37       91815068 B   ---   --   ---xx   flac  0.4927  codetalkers2008-11-26d01t03.flac
     8:21.42       88475228 B   ---   --   ---xx   flac  0.5504  codetalkers2008-11-26d01t04.flac
     8:09.15       86294924 B   ---   --   ---xx   flac  0.5301  codetalkers2008-11-26d01t05.flac
     7:16.70       77075084 B   ---   --   ---xx   flac  0.4497  codetalkers2008-11-26d01t06.flac
     9:06.69       96476732 B   ---   --   ---xx   flac  0.5296  codetalkers2008-11-26d01t07.flac
     8:53.04       94030652 B   ---   --   ---xx   flac  0.5019  codetalkers2008-11-26d01t08.flac
    63:43.09      674398720 B                            0.5102  (8 files)






ffp
codetalkers2008-11-26d01t01.flac:3bb050953abcc7233ae8a519a18a8509
codetalkers2008-11-26d01t02.flac:c86f6f46ffdee2a804f94542bd6c05c1
codetalkers2008-11-26d01t03.flac:57d0abd55b8b9508fb7ad1973f8548bf
codetalkers2008-11-26d01t04.flac:3a74033142dc011da5e0c12d845ff4a9
codetalkers2008-11-26d01t05.flac:1fa1ef3fc962e4b8a67bbba3c254cb7e
codetalkers2008-11-26d01t06.flac:a6688af5e96bdc29eaa164eee1a8feac
codetalkers2008-11-26d01t07.flac:84a669161aa2d7aea58275609add4355
codetalkers2008-11-26d01t08.flac:9ff86b8b785cebf1d2bd1b455382b165

Comments
Date User Comment
etreedb.org
For administrative requests email contact@etreedb.org
This website written by Tom H Anderson and maintained by the etreedb.org community.

Cached: Thu, 23 May 2024 06:21:07 EDT