Ancient Harmony 10/16/09
Five Spot, Atlanta, GA
Source # 105055
Entered by joel
Checksums ffp
Disc Counts 0 / 0
Media Size
Date Circulated
Date Added
11/24/09
12/29/2009
Download Text | Download Zip
Other Sources
Source Summary
Ancient Harmony 2009-10-16 Five Spot - Atlanta GA- fob AKG391
Ancient Harmony
October 16, 2009
Five Spot
Atlanta, GA

Shell Stamps- Lead Guitar, vocals
Steve Patton- Bass Guitar
Chad Jackson- Drums, vocals
http://www.myspace.com/ancientharmony

Source: fob AKG391 DIN > UA-5 (BM2P+ mod) > optical > H120
Location: dfc, 16\' out, 9\' up
Transfer: HDD > Adobe Audition 2.0 > CDWve > FLAC
Taped and seeded by: Michael Hughey


One Monster Set:

01 - That\'s What Love Will Make You Do
02 - Groovin
03 - Loving Cup
04 - Wheels
05 - Self Destruction
06 - 9 of the Universe
07 - Ocelot
08 - banter, band intros
09 - Milhalis -->
10 - Skywater
11 - Well Alright
12 - E: Memory

for audio CD burning, suggest tracks 1-8 (71:52 min) and tracks 9-12 (51:54 min) with track 8 as optional (making a 70:30 disc 1)


shntool len output (123:46.15 total running time)
Disc 1
    length     expanded size    cdr  WAVE problems  fmt   ratio  filename
     8:04.47       85488188 B   ---   --   ---xx   flac  0.5788  ah2009-10-16t01.flac
     8:33.53       90617900 B   ---   --   ---xx   flac  0.6269  ah2009-10-16t02.flac
    13:50.15      146447324 B   ---   --   ---xx   flac  0.6157  ah2009-10-16t03.flac
    14:45.70      156278684 B   ---   --   ---xx   flac  0.5740  ah2009-10-16t04.flac
    11:42.06      123846956 B   ---   --   ---xx   flac  0.5588  ah2009-10-16t05.flac
     4:52.39       51600572 B   ---   --   ---xx   flac  0.6307  ah2009-10-16t06.flac
     8:40.47       91838588 B   ---   --   ---xx   flac  0.6092  ah2009-10-16t07.flac
     1:22.40       14558924 B   ---   --   ---xx   flac  0.4262  ah2009-10-16t08.flac
    71:52.17      760677136 B                            0.5916  (8 files)

Disc 2
    length     expanded size    cdr  WAVE problems  fmt   ratio  filename
     6:15.17       66190028 B   ---   --   ---xx   flac  0.5379  ah2009-10-16t09.flac
    10:53.19      115233932 B   ---   --   ---xx   flac  0.5797  ah2009-10-16t10.flac
    12:31.50      132594044 B   ---   --   ---xx   flac  0.6030  ah2009-10-16t11.flac
    22:13.62      235287068 B   ---   --   ---xx   flac  0.5994  ah2009-10-16t12.flac
    51:53.73      549305072 B                            0.5887  (4 files)

ffp
ah2009-10-16t01.flac:da478a1c185a2637b6b998f4be8b48cb
ah2009-10-16t02.flac:11d04ca78b12503153ef17a0d36198ac
ah2009-10-16t03.flac:8329d0365ff9e6d336dc5b005a85b2a5
ah2009-10-16t04.flac:0a721a0abe76229949758ccd8c7890e7
ah2009-10-16t05.flac:35cac7cd0f473a1bd37177ca876c359b
ah2009-10-16t06.flac:d35ed44dc4fa7e4ace4051ef34e5cfb5
ah2009-10-16t07.flac:dd7c5ab0f54c1ab0403f1bb72a73202a
ah2009-10-16t08.flac:9d581773f5f3eeb0bea8dbe7e5fc9418
ah2009-10-16t09.flac:4cdd46adefbb088eba5b1efb45ffcafb
ah2009-10-16t10.flac:d2f72100288aa3efa0d8c0a2c15a1431
ah2009-10-16t11.flac:2284bd7a9fcf1bf51eebe7a67763ae20
ah2009-10-16t12.flac:2c425275801a39a8ebee14df6f628975

Comments
Date User Comment
etreedb.org
For administrative requests email contact@etreedb.org
This website written by Tom H Anderson and maintained by the etreedb.org community.

Cached: Sun, 26 Jun 2022 15:48:18 EDT