Ancient Harmony 12/18/08
Smith's Olde Bar, Atlanta, GA
Source # 105057
Entered by joel
Checksums ffp
Disc Counts 0 / 0
Media Size
Date Circulated
Date Added
12/19/08
12/29/2009
Download Text | Download Zip
Other Sources
Source Summary
Ancient Harmony Smith's Olde Bar Atlanta, Georgia 12/18/2008
Ancient Harmony
Smith\'s Olde Bar
Atlanta, Georgia
12/18/2008

Source: Schoeps CCM4V\'S(din)>Lunatec V2>Sound Devices 722 (24/48)
Location: FOB/DFC/KFC/ZFC/AARP 16\' From Stage, 7\' High
DSP: Sound Devices 722>Sound Forge 7.0>CD Wave>flac(16)
Recorded By: Z-Man
Seeded By: Z-Man

Disc I

01 Got To Get Better02 Groovin\'
03 Wheels
04 Rainbo\'s Cadillac
05 Morning Sun

Disc II

01 Memory
02 Band Introductions
03 Loose Lucy
04 Mission In The Rain

Disc III

01 Sky Water
Encore:
02 Banter
03 *Young Boy

* Shell\'s Guitar Amp Died Toward the End of the Song.

flac fingerprint

ancientharmony2008-12-18d01t01.flac:676af56221a87e2e91d4676156bb9d91
ancientharmony2008-12-18d01t02.flac:0e8517d7dfdbb216ca83c636373c663e
ancientharmony2008-12-18d01t03.flac:b12c2db3c6b9a5e1bfd1c31fda347ca4
ancientharmony2008-12-18d01t04.flac:ef33485cc3868ebce02ac99112572ee1
ancientharmony2008-12-18d01t05.flac:588d2419afaf0c50147a9b39c8fefba3
ancientharmony2008-12-18d02t01.flac:52bea7b5120c993e8dd636470f92c8fc
ancientharmony2008-12-18d02t02.flac:2a47f0a3e00ee69bc2929c6bffb4cb51
ancientharmony2008-12-18d02t03.flac:7365840ae95337cef8750f4637e09983
ancientharmony2008-12-18d02t04.flac:8ba1b19c0ea9872fc28ea5a2f2e0abb4
ancientharmony2008-12-18d03t01.flac:1123b8d5e8cb5c22f6e7f3fa1d327118
ancientharmony2008-12-18d03t02.flac:faf9203540b1cd2922753b2d47085b64
ancientharmony2008-12-18d03t03.flac:84091fedf6a472d064bc536110936760

shntool 3.0.4
Copyright (C) 2000-2007 Jason Jordan

    length     expanded size    cdr  WAVE problems  fmt   ratio  filename
     6:46.55       71747804 B   ---   --   ---xx   flac  0.5697  ancientharmony2008-12-18d01t01.flac
    11:10.16      118225676 B   ---   --   ---xx   flac  0.5066  ancientharmony2008-12-18d01t02.flac
    14:18.20      151398284 B   ---   --   ---xx   flac  0.5173  ancientharmony2008-12-18d01t03.flac
     8:33.56       90624956 B   ---   --   ---xx   flac  0.5221  ancientharmony2008-12-18d01t04.flac
    12:42.69      134578604 B   -b-   --   ---xx   flac  0.5522  ancientharmony2008-12-18d01t05.flac
    30:40.33      324653660 B   ---   --   ---xx   flac  0.5176  ancientharmony2008-12-18d02t01.flac
     2:25.23       25632140 B   ---   --   ---xx   flac  0.3419  ancientharmony2008-12-18d02t02.flac
     7:30.74       79554092 B   ---   --   ---xx   flac  0.5813  ancientharmony2008-12-18d02t03.flac
     8:44.28       92498588 B   -b-   --   ---xx   flac  0.4744  ancientharmony2008-12-18d02t04.flac
    10:46.04      113963852 B   ---   --   ---xx   flac  0.5274  ancientharmony2008-12-18d03t01.flac
     1:21.02       14293148 B   ---   --   ---xx   flac  0.3306  ancientharmony2008-12-18d03t02.flac
    21:04.54      223095692 B   -b-   --   ---xx   flac  0.5479  ancientharmony2008-12-18d03t03.flac
   136:04.58     1440266496 B                            0.5240  (12 files)



ffp
ancientharmony2008-12-18d01t01.flac:676af56221a87e2e91d4676156bb9d91
ancientharmony2008-12-18d01t02.flac:0e8517d7dfdbb216ca83c636373c663e
ancientharmony2008-12-18d01t03.flac:b12c2db3c6b9a5e1bfd1c31fda347ca4
ancientharmony2008-12-18d01t04.flac:ef33485cc3868ebce02ac99112572ee1
ancientharmony2008-12-18d01t05.flac:588d2419afaf0c50147a9b39c8fefba3
ancientharmony2008-12-18d02t01.flac:52bea7b5120c993e8dd636470f92c8fc
ancientharmony2008-12-18d02t02.flac:2a47f0a3e00ee69bc2929c6bffb4cb51
ancientharmony2008-12-18d02t03.flac:7365840ae95337cef8750f4637e09983
ancientharmony2008-12-18d02t04.flac:8ba1b19c0ea9872fc28ea5a2f2e0abb4
ancientharmony2008-12-18d03t01.flac:1123b8d5e8cb5c22f6e7f3fa1d327118
ancientharmony2008-12-18d03t02.flac:faf9203540b1cd2922753b2d47085b64
ancientharmony2008-12-18d03t03.flac:84091fedf6a472d064bc536110936760

Comments
Date User Comment
etreedb.org
For administrative requests email contact@etreedb.org
This website written by Tom H Anderson and maintained by the etreedb.org community.

Cached: Sat, 13 Apr 2024 02:34:46 EDT