Grateful Dead 01/14/78
Bakersfield Memorial Auditorium, Bakersfield, CA
Source Summary
flac16; 2 x AKG D224E >> Sony TC-158SD >> MAC>> Nakamichi CR7a => Korg MR-1000 >> DSF [1-bit 5.6448 MHz Stereo] >> Korg MR-1000 => Korg AudioGate >> WAV [24/96]
MOTB Release: 0117 16/44.1
Release Date: 2010-01-26
Band: Grateful Dead
Date: 1978-01-14 (Saturday)
Venue: Bakersfield Civic Auditorium
Location: Bakersfield, CA
Analog Audience Source: FOB Master Cassettes (MAC)
Medium Stock Brands: MAC = 2 x Maxell UDXL-II
Analog Lineage: 2 x AKG D224E >> Sony TC-158SD  >> MAC
Analog Sound Preservation: MAC >> Nakamichi CR7a => Korg MR-1000 >> DSF [1-bit 5.6448 MHz Stereo] >> Korg MR-1000 => Korg AudioGate >> WAV [24/96]
Taped By: Rheinhart Holwein
Transfer By: Bob Menke
Mastering By: Derek McCabe



Set 1:
d1t01: Jack Straw
d1t02: Dire Wolf
d1t03: Cassidy
d1t04: They Love Each Other
d1t05: Mama Tried >
d1t06: Me & My Uncle
d1t07: Loser
d1t08: Looks Like Rain
d1t19: Deal
d1t10: Let It Grow

Set 2:
d2t01: Samson & Delilah
d2t02: Candyman
d2t03: Estimated Prophet >
d2t04: Eyes Of The World >
d2t05: Space >
d2t06: Not Fade Away >
d2t07: One More Saturday Night
d2t08: Phil Announcement


Notes: NFA patched at tape flip


shntool 3.0.4
Copyright (C) 2000-2007 Jason Jordan

   length     expanded size    cdr  WAVE problems  fmt   ratio  filename
    6:21.45       67314284 B   ---   --   ---xx   flac  0.5773  gd1978-01-14.aud.holwein-menke.d1t01.flac
    4:23.24       46449692 B   ---   --   ---xx   flac  0.5428  gd1978-01-14.aud.holwein-menke.d1t02.flac
    5:13.63       55361420 B   ---   --   ---xx   flac  0.5577  gd1978-01-14.aud.holwein-menke.d1t03.flac
    7:35.04       80271452 B   ---   --   ---xx   flac  0.4436  gd1978-01-14.aud.holwein-menke.d1t04.flac
    2:44.44       29033132 B   ---   --   ---xx   flac  0.5624  gd1978-01-14.aud.holwein-menke.d1t05.flac
    3:37.74       38452892 B   ---   --   ---xx   flac  0.5476  gd1978-01-14.aud.holwein-menke.d1t06.flac
    7:31.64       79706972 B   ---   --   ---xx   flac  0.5264  gd1978-01-14.aud.holwein-menke.d1t07.flac
    7:33.43       80010380 B   ---   --   ---xx   flac  0.5228  gd1978-01-14.aud.holwein-menke.d1t08.flac
    6:24.47       67848188 B   ---   --   ---xx   flac  0.5388  gd1978-01-14.aud.holwein-menke.d1t09.flac
   12:40.17      134104028 B   ---   --   ---xx   flac  0.5601  gd1978-01-14.aud.holwein-menke.d1t10.flac
    7:59.71       84662636 B   ---   --   ---xx   flac  0.5611  gd1978-01-14.aud.holwein-menke.d2t01.flac
    8:17.31       87743756 B   ---   --   ---xx   flac  0.5122  gd1978-01-14.aud.holwein-menke.d2t02.flac
   12:43.62      134739068 B   ---   --   ---xx   flac  0.5317  gd1978-01-14.aud.holwein-menke.d2t03.flac
   14:30.36      153552716 B   ---   --   ---xx   flac  0.5309  gd1978-01-14.aud.holwein-menke.d2t04.flac
    6:24.53       67862300 B   ---   --   ---xx   flac  0.5390  gd1978-01-14.aud.holwein-menke.d2t05.flac
   15:02.67      159270428 B   ---   --   ---xx   flac  0.5335  gd1978-01-14.aud.holwein-menke.d2t06.flac
    5:21.14       56657372 B   ---   --   ---xx   flac  0.5604  gd1978-01-14.aud.holwein-menke.d2t07.flac
    0:43.08        7604060 B   ---   --   ---xx   flac  0.5446  gd1978-01-14.aud.holwein-menke.d2t08.flac
  135:10.17     1430644776 B                            0.5357  (18 files)
ffp
gd1978-01-14.aud.holwein-menke.d1t01.flac:1540010cb0406cbdf05cb20d134bce37
gd1978-01-14.aud.holwein-menke.d1t02.flac:27e3e4ddb92b9430d67822848a67321c
gd1978-01-14.aud.holwein-menke.d1t03.flac:16cbbcbe4face22b5e7e86749ae3eb39
gd1978-01-14.aud.holwein-menke.d1t04.flac:86366c5038a9f63da1e09c1523a13692
gd1978-01-14.aud.holwein-menke.d1t05.flac:92e360a41232207e32417f87f7e11266
gd1978-01-14.aud.holwein-menke.d1t06.flac:cc985f07665ea53e18788f36ac2f1b87
gd1978-01-14.aud.holwein-menke.d1t07.flac:39750754249a64d812209756dbdb6012
gd1978-01-14.aud.holwein-menke.d1t08.flac:6b8e63d3096d91f4f1b9374e8d9ef464
gd1978-01-14.aud.holwein-menke.d1t09.flac:ce2ceeaa5b012cd9a48e239e09e82d62
gd1978-01-14.aud.holwein-menke.d1t10.flac:2e9a19566b20c2f3f4b1ef406e47ecc4
gd1978-01-14.aud.holwein-menke.d2t01.flac:ad0009b2633af3032c3981a2e3da7b82
gd1978-01-14.aud.holwein-menke.d2t02.flac:a82cc98bbf12b4df17bea50a755d3546
gd1978-01-14.aud.holwein-menke.d2t03.flac:2ae4081dafa812ff2d43421cbf46e68d
gd1978-01-14.aud.holwein-menke.d2t04.flac:d533590e5941241f04ae367c03c4d5e2
gd1978-01-14.aud.holwein-menke.d2t05.flac:358bc875bb242e81e6d425cd85032bba
gd1978-01-14.aud.holwein-menke.d2t06.flac:cdee4b1f0fca4c42effe329fe21c9a89
gd1978-01-14.aud.holwein-menke.d2t07.flac:a5b3deb232149df05b5c4c7ed765cd63
gd1978-01-14.aud.holwein-menke.d2t08.flac:336d41f9c57aee7d8768b9879949a7d7
ea2f669e5f9f3fe04abbd71523ca4eb3 *gd1978-01-14.aud.holwein-menke.d1t01.flac
61b1f238e2ddfc689a661a2462189994 *gd1978-01-14.aud.holwein-menke.d1t02.flac
f295db7bf69f30fcb15a4b324f58be9a *gd1978-01-14.aud.holwein-menke.d1t03.flac
01460e1dcc81b2e6c0f993f70f1587e2 *gd1978-01-14.aud.holwein-menke.d1t04.flac
91b2ad5bc50089021fbebe0f6e777294 *gd1978-01-14.aud.holwein-menke.d1t05.flac
eb3ef1a8d6dcc5fc9f8ad9642eb74d7b *gd1978-01-14.aud.holwein-menke.d1t06.flac
9f58f8538e2f9275bf98153310b7e5bc *gd1978-01-14.aud.holwein-menke.d1t07.flac
57ac02c3707c3d20754b997664575723 *gd1978-01-14.aud.holwein-menke.d1t08.flac
e54e0cc7faf35a8ffe87716d6e16a49e *gd1978-01-14.aud.holwein-menke.d1t09.flac
542e26e6c5b8062de171a91092ce56f2 *gd1978-01-14.aud.holwein-menke.d1t10.flac
ff10ac903bd62139055c963de70fc3dc *gd1978-01-14.aud.holwein-menke.d2t01.flac
560b9fe20878e4dca6e273fcb1a74211 *gd1978-01-14.aud.holwein-menke.d2t02.flac
d4cf5470166c9562cf598db6115c8952 *gd1978-01-14.aud.holwein-menke.d2t03.flac
3ac318e23f7d86afa727cc84d2806d47 *gd1978-01-14.aud.holwein-menke.d2t04.flac
2f6fb5872280672051ce727cdc6f62de *gd1978-01-14.aud.holwein-menke.d2t05.flac
649f117d8fdee770dffc9b602f822b35 *gd1978-01-14.aud.holwein-menke.d2t06.flac
e2dc382b00b990333a374b3bd6adf933 *gd1978-01-14.aud.holwein-menke.d2t07.flac
cb11768656225ab6db2508a134987fba *gd1978-01-14.aud.holwein-menke.d2t08.flac

Comments
etreedb.org
For administrative requests email contact@etreedb.org
This website written by Tom H Anderson and maintained by the etreedb.org community.

Cached: Wed, 16 Oct 2019 18:44:30 EDT