Grateful Dead 01/14/78
Bakersfield Memorial Auditorium, Bakersfield, CA
Source Summary
flac16; MTX 2 x AKG D224E >> Sony TC-158SD >> MAC>> Nakamichi CR7a => Korg MR-1000 >> DSF [1-bit 5.6448 MHz Stereo] >> Korg MR-1000 => Korg AudioGate >> WAV [24/96] Soundboard Source: gd78-01-14.sbd.vernon.16114.sbeok.shnf
MOTB Release: 0121 16/44.1
Release Date: 2010-02-01
Band: Grateful Dead
Date: 1978-01-14 (Saturday)
Venue: Bakersfield Civic Auditorium
Location: Bakersfield, CA
Analog Audience Source: FOB Master Cassettes (MAC)
Soundboard Source: gd78-01-14.sbd.vernon.16114.sbeok.shnf
Medium Stock Brands: MAC = 2 x Maxell UDXL-II
Analog Lineage: 2 x AKG D224E >> Sony TC-158SD  >> MAC
Analog Sound Preservation: MAC >> Nakamichi CR7a => Korg MR-1000 >> DSF [1-bit 5.6448 MHz Stereo] >> Korg MR-1000 => Korg AudioGate >> WAV [24/96]
Taped By: Rheinhart Holwein
Transfer By: Bob Menke
Mastering By: Derek McCabe



Set 1:
d1t01: tuning
d1t02: Jack Straw
d1t03: Dire Wolf
d1t04: Cassidy
d1t05: They Love Each Other
d1t06: Mama Tried >
d1t07: Me & My Uncle
d1t08: Loser
d1t09: Looks Like Rain
d1t10: Deal
d1t11: Let It Grow

Set 2:
d2t01: Samson & Delilah
d2t02: Candyman
d2t03: Estimated Prophet >
d2t04: Eyes Of The World >
d2t05: Space >
d2t06: Not Fade Away >
d2t07: One More Saturday Night
d2t08: Phil Announcement


Notes: NFA patched at tape flip

shntool 3.0.4
Copyright (C) 2000-2007 Jason Jordan

   length     expanded size    cdr  WAVE problems  fmt   ratio  filename
    1:35.09       16779212 B   ---   --   ---xx   flac  0.4793  gd1978-01-14.mtx.holwein-menke.d1t01.flac
    8:11.06       86626556 B   ---   --   ---xx   flac  0.5241  gd1978-01-14.mtx.holwein-menke.d1t02.flac
    7:36.45       80544284 B   ---   --   ---xx   flac  0.4773  gd1978-01-14.mtx.holwein-menke.d1t03.flac
    5:38.52       59745548 B   ---   --   ---xx   flac  0.5377  gd1978-01-14.mtx.holwein-menke.d1t04.flac
    8:10.36       86520716 B   ---   --   ---xx   flac  0.4489  gd1978-01-14.mtx.holwein-menke.d1t05.flac
    2:46.00       29282444 B   ---   --   ---xx   flac  0.5576  gd1978-01-14.mtx.holwein-menke.d1t06.flac
    4:30.29       47696252 B   ---   --   ---xx   flac  0.5110  gd1978-01-14.mtx.holwein-menke.d1t07.flac
    9:20.08       98802860 B   ---   --   ---xx   flac  0.4951  gd1978-01-14.mtx.holwein-menke.d1t08.flac
    8:51.56       93800156 B   ---   --   ---xx   flac  0.4993  gd1978-01-14.mtx.holwein-menke.d1t09.flac
    7:16.59       77049212 B   ---   --   ---xx   flac  0.5162  gd1978-01-14.mtx.holwein-menke.d1t10.flac
   12:40.26      134125196 B   ---   --   ---xx   flac  0.5518  gd1978-01-14.mtx.holwein-menke.d1t11.flac
   12:36.16      133396076 B   ---   --   ---xx   flac  0.4683  gd1978-01-14.mtx.holwein-menke.d2t01.flac
    9:32.29      100969052 B   ---   --   ---xx   flac  0.4823  gd1978-01-14.mtx.holwein-menke.d2t02.flac
   13:04.36      138382316 B   ---   --   ---xx   flac  0.5207  gd1978-01-14.mtx.holwein-menke.d2t03.flac
   14:30.21      153517436 B   ---   --   ---xx   flac  0.5277  gd1978-01-14.mtx.holwein-menke.d2t04.flac
    6:31.46       69080636 B   ---   --   ---xx   flac  0.5383  gd1978-01-14.mtx.holwein-menke.d2t05.flac
   14:53.30      157595804 B   ---   --   ---xx   flac  0.5289  gd1978-01-14.mtx.holwein-menke.d2t06.flac
    5:36.59       59409212 B   ---   --   ---xx   flac  0.5460  gd1978-01-14.mtx.holwein-menke.d2t07.flac
    0:43.08        7604060 B   ---   --   ---xx   flac  0.5446  gd1978-01-14.mtx.holwein-menke.d2t08.flac
  154:05.46     1630927028 B                            0.5116  (19 files)
ffp
gd1978-01-14.mtx.holwein-menke.d1t01.flac:8bdc60053db01c513447e0ff514de63f
gd1978-01-14.mtx.holwein-menke.d1t02.flac:12c9242477523067659fedcf5bef70d7
gd1978-01-14.mtx.holwein-menke.d1t03.flac:9ed6d64facfc14e9108b0ae4d8487fc2
gd1978-01-14.mtx.holwein-menke.d1t04.flac:fe13faa7588aad64729d42a32cab1080
gd1978-01-14.mtx.holwein-menke.d1t05.flac:552c4f05099e6f3bc787efc2977d28ec
gd1978-01-14.mtx.holwein-menke.d1t06.flac:625493e7bea879e04ec62615d8f030c6
gd1978-01-14.mtx.holwein-menke.d1t07.flac:b0c73f364deebe1e32399ad8654dd6c8
gd1978-01-14.mtx.holwein-menke.d1t08.flac:8f223d33ac6930277750bc9ebd5fc64b
gd1978-01-14.mtx.holwein-menke.d1t09.flac:be0b11fb8ab51138191b956a8e134721
gd1978-01-14.mtx.holwein-menke.d1t10.flac:910f9540967201f554e020245e5bb99d
gd1978-01-14.mtx.holwein-menke.d1t11.flac:c36191411ba50fce61f9bea1dcac111d
gd1978-01-14.mtx.holwein-menke.d2t01.flac:0ea7d07a5ff0367cf74991bfee9d45cf
gd1978-01-14.mtx.holwein-menke.d2t02.flac:c07941017019264b8263eb4d696dd6f6
gd1978-01-14.mtx.holwein-menke.d2t03.flac:ff373b1162a0dad3bf8e0c2a7babfead
gd1978-01-14.mtx.holwein-menke.d2t04.flac:55e750918fbb3eebc32c0147fab00667
gd1978-01-14.mtx.holwein-menke.d2t05.flac:4393109346ac834e77b5058a29eadce4
gd1978-01-14.mtx.holwein-menke.d2t06.flac:852eb085da217e9bf756479793ad5721
gd1978-01-14.mtx.holwein-menke.d2t07.flac:1c215ddb5e6c14cbd032699e97e58d08
gd1978-01-14.mtx.holwein-menke.d2t08.flac:4cb14e1bc2975855184fb884ce884261
d4dc87ae7cad8950779b55c6edf42265 *gd1978-01-14.mtx.holwein-menke.d1t01.flac
6e347f761062ec6a816cad3ff0a4096a *gd1978-01-14.mtx.holwein-menke.d1t02.flac
d138fafee52611412259fac5743c5863 *gd1978-01-14.mtx.holwein-menke.d1t03.flac
8ece24388390d2c2d70167f747d057a2 *gd1978-01-14.mtx.holwein-menke.d1t04.flac
2c0ddd1594ac2539459a527c060a5e39 *gd1978-01-14.mtx.holwein-menke.d1t05.flac
6692538c1a6692b7cd04c380cee2689b *gd1978-01-14.mtx.holwein-menke.d1t06.flac
8d17a1e65b4a3d9e2cd5e2f5eb584ad5 *gd1978-01-14.mtx.holwein-menke.d1t07.flac
7e6329a93e56d17915112a6427a4e003 *gd1978-01-14.mtx.holwein-menke.d1t08.flac
82ef2b38820a29a75adb94724d2965b5 *gd1978-01-14.mtx.holwein-menke.d1t09.flac
3aa14cc5211c2c9cb8d4bd86cbbe73e1 *gd1978-01-14.mtx.holwein-menke.d1t10.flac
e6f5e67b0e9f8fa70fec0f76965aaedb *gd1978-01-14.mtx.holwein-menke.d1t11.flac
b927e639c578ccc8dd0f1fc0db0298ea *gd1978-01-14.mtx.holwein-menke.d2t01.flac
16f41bd61db4893d587a3d4690b9e9dc *gd1978-01-14.mtx.holwein-menke.d2t02.flac
9ccedfb977ab101d54d66ba617e2313b *gd1978-01-14.mtx.holwein-menke.d2t03.flac
40615039f1b642461fe676b46a20add8 *gd1978-01-14.mtx.holwein-menke.d2t04.flac
65333fcb964e5e25715b45177f013502 *gd1978-01-14.mtx.holwein-menke.d2t05.flac
d85b868a41306a8e6bef27ed397c41c9 *gd1978-01-14.mtx.holwein-menke.d2t06.flac
4adb1998bb6dabb2e5bb7ac3538cac6e *gd1978-01-14.mtx.holwein-menke.d2t07.flac
c466eeb077de01b07233801e0aafc774 *gd1978-01-14.mtx.holwein-menke.d2t08.flac

Comments
etreedb.org
For administrative requests email contact@etreedb.org
This website written by Tom H Anderson and maintained by the etreedb.org community.

Cached: Sat, 14 Dec 2019 07:23:38 EST