John Bell 01/20/07
House of Blues, Orlando, FL
Source # 105998
Entered by Michael
Checksums ffp
Disc Counts 1 / 1
Media Size
Date Circulated
Date Added

02/11/2010
Download Text | Download Zip
Other Sources
Source Summary
Schoeps mk41v(dina)~>kc5~>m222~>nt222 + mk4v/mk8(mid-side)~>kcy~>vms5u~>744t
John Bell & Sam Holt
House of Blues
Orlando, FL
2007-01-20

source: Schoeps mk41v(dina)~>kc5~>m222~>nt222 + mk4v/mk8(mid-side)~>kcy~>vms5u~>744t (24/96)
location: fob/loc
transfer: 744t~>wavelab5~>cdwave~>wavelab5~>flac(6)
recorded & seeded: charles fox

1 set / disc 1
01 Introductions/Tuning
02 Papas Home >
03 Lets Get The Show On The Road
04 Genesis
05 New Blue
06 Tell The Truth into Submission
07 Tennessee Before Daylight
08
09 Geraldine and the Honeybee

shntool
   length     expanded size   cdr  WAVE problems filename
     5:58.01       63153596    ---   --   ---xx   jb2007-01-20d1t01.flac
    14:49.34      156899612    ---   --   ---xx   jb2007-01-20d1t02.flac
    10:23.29      109965452    ---   --   ---xx   jb2007-01-20d1t03.flac
     9:36.00      101606444    ---   --   ---xx   jb2007-01-20d1t04.flac
     6:22.61       67528316    ---   --   ---xx   jb2007-01-20d1t05.flac
    12:20.17      130576028    ---   --   ---xx   jb2007-01-20d1t06.flac
     7:20.32       77691308    ---   --   ---xx   jb2007-01-20d1t07.flac
     8:09.53       86384300    ---   --   ---xx   jb2007-01-20d1t08.flac
     4:36.60       48827564    ---   --   ---xx   jb2007-01-20d1t09.flac
    79:36.62      842632620 B                     (totals for 9 files, 0.4807 overall compression ratio)
ffp
jb2007-01-20d1t01.flac:c7c4c5aea8f220f168138017652ab0a4
jb2007-01-20d1t02.flac:8cd4eeca8d9314142d436f36a89c7a5d
jb2007-01-20d1t03.flac:cbdce625bc1da43e989a269a2593f0db
jb2007-01-20d1t04.flac:051a53c5d1af5082b0808121b7eb5d5d
jb2007-01-20d1t05.flac:09e6471e11d95a275af70964917e0216
jb2007-01-20d1t06.flac:06b12f9f17ad30b30699fea859728704
jb2007-01-20d1t07.flac:441a3bdcb21a4a7a48c0b3d9a7dfcef2
jb2007-01-20d1t08.flac:eeb9672b9b3e4cf8a55067aa4b303db1
jb2007-01-20d1t09.flac:829d0049bed1ae946cd6505193a2ab2f

Comments
Date User Comment
etreedb.org
For administrative requests email contact@etreedb.org
This website written by Tom H Anderson and maintained by the etreedb.org community.

Cached: Wed, 29 May 2024 13:39:13 EDT