Grateful Dead 12/31/78
Winterland Arena, San Francisco, CA
Source Summary
flac16; Analog Audience Source: FOB Master Cassettes (MAC) Medium Stock Brands: MAC = 3 x Maxell UDXL-II Analog Lineage: 2 x AKG D224E >> Sony TC-158SD  >> MAC Analog Sound Preservation: MAC >> Nakamichi CR7a => Korg MR-1000 >> DSF [1-bit 5.6448 MHz Stereo] >> Korg MR-1000 => Korg AudioGate >> WAV [24/96] Taped By: Rheinhart Holwein
MOTB Release: 0130 16/44.1
Release Date: 2010-02-15
Band: Grateful Dead
Date: 1978-12-31 (Sunday)
Venue: Winterland
Location: San Francisco, CA
Analog Audience Source: FOB Master Cassettes (MAC)
Medium Stock Brands: MAC = 3 x Maxell UDXL-II
Analog Lineage: 2 x AKG D224E >> Sony TC-158SD >> MAC
Analog Sound Preservation: MAC >> Nakamichi CR7a => Korg MR-1000 >> DSF [1-bit 5.6448 MHz Stereo] >> Korg MR-1000 => Korg AudioGate >> WAV [24/96]
Taped By: Rheinhart Holwein
Transfer By: Bob Menke
Mastering By: David Minches and Derek McCabe


Set 1:

d1t01: Happy New Year
d1t02: Sugar Magnolia >
d1t03: Scarlet Begonias >
d1t04: Fire On The Mountain
d1t05: Me And My Uncle >
d1t06: Big River
d1t07: Friend Of The Devil
d1t08: It's All Over Now
d1t09: Stagger Lee
d2t01: From The Heart Of Me >
d2t02: Sunshine Daydream

Set 2:

d2t03: Tuning
d2t04: Samson And Delilah
d2t05: Ramble On Rose
d2t06: I Need A Miracle >
d2t07: Terrapin Station >
d2t08: Playing In The Band >
d3t01: Drums >
d3t02: Not Fade Away >
d3t03: Around And Around

Set 3:

d4t01: Tuning
d4t02: Dark Star >
d4t03: The Other One >
d4t04: Dark Star Jam >
d4t05: Wharf Rat >
d4t06: Saint Stephen >
d4t07: Good Lovin'
Encore
d4t08: Casey Jones >
d4t09: Johnny B. Goode
d4t10: And We Bid You Good Night


Notes:Pitch correction by Joe B. Jones



shntool 3.0.4
Copyright (C) 2000-2007 Jason Jordan

    length     expanded size    cdr  WAVE problems  fmt   ratio  filename
     4:06.42       43493228 B   ---   --   ---xx   flac  0.5176  gd1978-12-31.d1t01.flac
     5:49.46       61671836 B   ---   --   ---xx   flac  0.5653  gd1978-12-31.d1t02.flac
    11:51.62      125566268 B   ---   --   ---xx   flac  0.5425  gd1978-12-31.d1t03.flac
    15:35.39      165025772 B   ---   --   ---xx   flac  0.5302  gd1978-12-31.d1t04.flac
     3:04.40       32551724 B   ---   --   ---xx   flac  0.5366  gd1978-12-31.d1t05.flac
     7:05.44       75073532 B   ---   --   ---xx   flac  0.5197  gd1978-12-31.d1t06.flac
    11:02.37      116863868 B   ---   --   ---xx   flac  0.4981  gd1978-12-31.d1t07.flac
     8:58.21       94952636 B   ---   --   ---xx   flac  0.5206  gd1978-12-31.d1t08.flac
     7:34.46       80193836 B   ---   --   ---xx   flac  0.5219  gd1978-12-31.d1t09.flac
     3:45.22       39741788 B   ---   --   ---xx   flac  0.5051  gd1978-12-31.d2t01.flac
     3:15.54       34525052 B   ---   --   ---xx   flac  0.5586  gd1978-12-31.d2t02.flac
     0:54.01        9527996 B   ---   --   ---xx   flac  0.4421  gd1978-12-31.d2t03.flac
     8:00.41       84768476 B   ---   --   ---xx   flac  0.5254  gd1978-12-31.d2t04.flac
     9:32.34      100980812 B   ---   --   ---xx   flac  0.5002  gd1978-12-31.d2t05.flac
    11:13.08      118736060 B   ---   --   ---xx   flac  0.5235  gd1978-12-31.d2t06.flac
    12:21.31      130785356 B   ---   --   ---xx   flac  0.5085  gd1978-12-31.d2t07.flac
    13:00.46      137700236 B   ---   --   ---xx   flac  0.5165  gd1978-12-31.d2t08.flac
    19:09.48      202796540 B   ---   --   ---xx   flac  0.4688  gd1978-12-31.d3t01.flac
    19:30.46      206496236 B   ---   --   ---xx   flac  0.5147  gd1978-12-31.d3t02.flac
     9:06.18       96356780 B   ---   --   ---xx   flac  0.5467  gd1978-12-31.d3t03.flac
     1:24.28       14883500 B   ---   --   ---xx   flac  0.4697  gd1978-12-31.d4t01.flac
    12:24.25      131300444 B   ---   --   ---xx   flac  0.5393  gd1978-12-31.d4t02.flac
     3:59.23       42213740 B   ---   --   ---xx   flac  0.5562  gd1978-12-31.d4t03.flac
     1:16.47       13516988 B   ---   --   ---xx   flac  0.5161  gd1978-12-31.d4t04.flac
    11:05.43      117407180 B   ---   --   ---xx   flac  0.5190  gd1978-12-31.d4t05.flac
     7:55.23       83844140 B   ---   --   ---xx   flac  0.5481  gd1978-12-31.d4t06.flac
    12:31.67      132634028 B   ---   --   ---xx   flac  0.5461  gd1978-12-31.d4t07.flac
     5:19.63       56419820 B   ---   --   ---xx   flac  0.5247  gd1978-12-31.d4t08.flac
     6:03.70       64197884 B   ---   --   ---xx   flac  0.5625  gd1978-12-31.d4t09.flac
     5:38.32       59698508 B   ---   --   ---xx   flac  0.5169  gd1978-12-31.d4t10.flac
   252:38.22     2673924264 B                            0.5219  (30 files)
3090016197b9d15def97c4d95ea23f06 *gd1978-12-31.d1t01.flac
70b255641351225dfc2ce4478b54b652 *gd1978-12-31.d1t02.flac
39f33427225abac04ed3c055a6a2f9a8 *gd1978-12-31.d1t03.flac
cfd4981b76ac71483c77c4d4ae25381a *gd1978-12-31.d1t04.flac
9c6ece169e21dc90b36eb30f2414510d *gd1978-12-31.d1t05.flac
12f4d365613220b801ef497699e929ff *gd1978-12-31.d1t06.flac
55622ac7477198f0f0a1851ff154b9ad *gd1978-12-31.d1t07.flac
7998274322be6e886f77f3bf2f32e7b8 *gd1978-12-31.d1t08.flac
456585f219446b5b329a073c10189fb9 *gd1978-12-31.d1t09.flac
50ed603251697a740d84637fe35ec6b9 *gd1978-12-31.d2t01.flac
757a551b2e64d9f276ffb0a9b41342c0 *gd1978-12-31.d2t02.flac
b973941b4eaf86b3d750738b534b4bdc *gd1978-12-31.d2t03.flac
f723d2d1bcb033e4a017242c03af14b6 *gd1978-12-31.d2t04.flac
a192d6584108dae06e46fa73946f127f *gd1978-12-31.d2t05.flac
86a0e85541de69daae3d9407ca5520f9 *gd1978-12-31.d2t06.flac
9d2bec1bdf2d5b0563f424182c625b28 *gd1978-12-31.d2t07.flac
6f4464a37f073ffe766ad228bcbd08b0 *gd1978-12-31.d2t08.flac
0ed0390395efe4a22eb087bd427ca225 *gd1978-12-31.d3t01.flac
1922d5f306c6ce17580db20b9900fb22 *gd1978-12-31.d3t02.flac
1ad0c5c59b832006e69c49cf4b15cfbb *gd1978-12-31.d3t03.flac
646f97b351545e4041c566be877f2ef7 *gd1978-12-31.d4t01.flac
aea670495adbcdd49cad299e4779edd9 *gd1978-12-31.d4t02.flac
af55337d34df466c3b29ac710deb6156 *gd1978-12-31.d4t03.flac
ef6d9ffbffb1366c55d6ec03765943ed *gd1978-12-31.d4t04.flac
0cec5031ea5c1a7d98159baf5b7dbf91 *gd1978-12-31.d4t05.flac
1167531f2dbcee7e506083aece8d3778 *gd1978-12-31.d4t06.flac
8a4310bb7e7d65d571424f48ebed7d1b *gd1978-12-31.d4t07.flac
07db63a57f6eac6e196c72a793f3927f *gd1978-12-31.d4t08.flac
934a9fb30a183cf60c15453fbb70cbb9 *gd1978-12-31.d4t09.flac
9c6878b5c3d24917876b477c07d21d66 *gd1978-12-31.d4t10.flac
ffp
gd1978-12-31.d1t01.flac:e88f32be90b74f958ab13b8024e03cfe
gd1978-12-31.d1t02.flac:37d39b4e23230899fce477161d25fcf1
gd1978-12-31.d1t03.flac:23428e0fd91f4eb48916972d6ec934a0
gd1978-12-31.d1t04.flac:f6e6a491ff543f61acf08580df66b08d
gd1978-12-31.d1t05.flac:cc355885da70727de36fe88a6f90fffb
gd1978-12-31.d1t06.flac:795e28417cca930afcc2a6786dc755b0
gd1978-12-31.d1t07.flac:75ded53417435071180b1f34a45dfc48
gd1978-12-31.d1t08.flac:d09352f7831e1e7f647063d6cb91219d
gd1978-12-31.d1t09.flac:a1bfeddd333be82981a5099c388aa386
gd1978-12-31.d2t01.flac:c6bdd4a552c24d6c99c6a484ca212ee9
gd1978-12-31.d2t02.flac:90117ea79282ab82040591a506e1d0d8
gd1978-12-31.d2t03.flac:20210edce13165caccc7cc445eb11e70
gd1978-12-31.d2t04.flac:911ea46b83bf199b8f93058f01d53f8b
gd1978-12-31.d2t05.flac:ae51e7e70f8fe4522af6ab9657c8e995
gd1978-12-31.d2t06.flac:63e15be615f821ce393cd6df71610493
gd1978-12-31.d2t07.flac:630e8351067062e2679621d093c8b915
gd1978-12-31.d2t08.flac:e92c2d825a51644bed5108acd27ac6a1
gd1978-12-31.d3t01.flac:270cb16212b04fcc1ca553184bfe0572
gd1978-12-31.d3t02.flac:2898fe32d82053a76b02351e570ae28b
gd1978-12-31.d3t03.flac:1fd1c1d9884ccbc3ce1ab107b014f71e
gd1978-12-31.d4t01.flac:b59cb080a7e1b62c7f0c2613b387a4d2
gd1978-12-31.d4t02.flac:acab18dec3946cc38199f7cd9feee633
gd1978-12-31.d4t03.flac:a7c9868c7986e9ce95ef24f40226d5d2
gd1978-12-31.d4t04.flac:8044f56a789b2279e617401f20317635
gd1978-12-31.d4t05.flac:a090d0e476b3201f2ee24a32fd929e88
gd1978-12-31.d4t06.flac:bf8f58eb18c092d9de97e30cb67baeb3
gd1978-12-31.d4t07.flac:a10c2071ecc26f59dce83f7023b8be97
gd1978-12-31.d4t08.flac:cdf394766be084b183fd8067f7a15f1c
gd1978-12-31.d4t09.flac:ba8144b427a2b411d0ff0893ab8e561e
gd1978-12-31.d4t10.flac:0e248381a2c884dd3fad81b288276ec0

Comments
etreedb.org
For administrative requests email contact@etreedb.org
This website written by Tom H Anderson and maintained by the etreedb.org community.

Cached: Wed, 16 Oct 2019 18:12:51 EDT