Grateful Dead 01/15/78
Selland Arena, Fresno, CA
Source # 106182
Entered by Matt Vernon
Checksums flac-md5 , ffp
Disc Counts 0 / 0
Media Size
Date Circulated
Date Added
02/20/2010
02/20/2010
Source Summary
flac16; 2 x AKG D224E >> Sony TC-158SD >> MAC>> Nakamichi CR7a => Korg MR-1000 >> DSF [1-bit 5.6448 MHz Stereo] >> Korg MR-1000 => Korg AudioGate >> WAV [24/96] Taped By: Rheinhart Holwein
MOTB Release: 0132 16/44.1
Release Date: 2010-02-20
Band: Grateful Dead
Date: 1978-01-15 (Sunday)
Venue: Selland Arena
Location: Fresno, CA
Analog Audience Source: FOB Master Cassettes (MAC)
Medium Stock Brands: MAC = 2 x Maxell UDXL-II
Analog Lineage: 2 x AKG D224E >> Sony TC-158SD  >> MAC
Analog Sound Preservation: MAC >> Nakamichi CR7a => Korg MR-1000 >> DSF [1-bit 5.6448 MHz Stereo] >> Korg MR-1000 => Korg AudioGate >> WAV [24/96]
Taped By: Rheinhart Holwein
Transfer By: Bob Menke
Mastering By: Derek McCabe



Set 1:
Disc One
d1t01: Bertha >
d1t02: Good Lovin'
d1t03: Dire Wolf
d1t04: Mexicali Blues >
d1t05: Big River
d1t06: It Must Have Been The Roses
d1t07: Passenger
d1t08: Brown Eyed Women
d1t09: The Music Never Stopped

Set 2:
Disc Two
d2t01: tuning
d2t02: Samson & Delilah
d2t03: Friend Of The Devil
d2t04: Sunrise
d2t05: Terrapin Station >

Set 2 (Cont):
Disc Three
d3t01: Playin' In The Band >
d3t02: Wharf Rat >
d3t03: Sugar Magnolia

Notes:

There are few tape pauses after songs that are left included.

"Big River" patch in the beginning at 0:33 with gd78-01-15.sbd-aud.citsman.13252.sbeok.shnf

Tape flip at 23:14 in "Playin' in the Band" crossfaded. Total time for "Playin" 27:21!!!



shntool 3.0.4
Copyright (C) 2000-2007 Jason Jordan

   length     expanded size    cdr  WAVE problems  fmt   ratio  filename
    7:17.53       77211500 B   ---   --   ---xx   flac  0.4858  gd1978-01-15.d1t01.flac
    7:14.58       76694060 B   ---   --   ---xx   flac  0.4584  gd1978-01-15.d1t02.flac
    4:12.61       44596316 B   ---   --   ---xx   flac  0.4758  gd1978-01-15.d1t03.flac
    3:33.48       37686140 B   ---   --   ---xx   flac  0.4690  gd1978-01-15.d1t04.flac
    6:18.73       66850940 B   ---   --   ---xx   flac  0.4734  gd1978-01-15.d1t05.flac
    7:18.28       77329100 B   ---   --   ---xx   flac  0.4319  gd1978-01-15.d1t06.flac
    7:27.33       78928460 B   ---   --   ---xx   flac  0.4641  gd1978-01-15.d1t07.flac
    7:21.28       77858300 B   ---   --   ---xx   flac  0.4265  gd1978-01-15.d1t08.flac
    8:14.41       87238076 B   ---   --   ---xx   flac  0.4951  gd1978-01-15.d1t09.flac
    2:12.47       23395388 B   ---   --   ---xx   flac  0.3825  gd1978-01-15.d2t01.flac
    8:21.72       88545788 B   ---   --   ---xx   flac  0.4891  gd1978-01-15.d2t02.flac
    8:47.29       93031052 B   ---   --   ---xx   flac  0.4412  gd1978-01-15.d2t03.flac
    4:38.62       49185068 B   ---   --   ---xx   flac  0.4306  gd1978-01-15.d2t04.flac
   10:05.41      106818476 B   ---   --   ---xx   flac  0.4724  gd1978-01-15.d2t05.flac
   27:21.08      289491260 B   ---   --   ---xx   flac  0.4440  gd1978-01-15.d3t01.flac
   10:56.65      115871324 B   ---   --   ---xx   flac  0.4904  gd1978-01-15.d3t02.flac
    9:56.65      105287324 B   ---   --   ---xx   flac  0.5399  gd1978-01-15.d3t03.flac
  141:20.62     1496018572 B                            0.4657  (17 files)
98db445d11861ef336214f8d6ff96c54 *gd1978-01-15.d1t01.flac
fbd7ecdbc98a8a0c14657d8e88b5a919 *gd1978-01-15.d1t02.flac
ebeee9f11237dc942a603c28a160a96a *gd1978-01-15.d1t03.flac
b83dd9ec288582f227c125adcda7dfb8 *gd1978-01-15.d1t04.flac
d7433a6a2943c88fac207ea3012a4a75 *gd1978-01-15.d1t05.flac
0a0ed8b53ff337cfa1ec44d2be1859a1 *gd1978-01-15.d1t06.flac
94482dcdb9871d2de22ef46cdf1e9dff *gd1978-01-15.d1t07.flac
cba49896556584b0d7bc9cd28d44dee2 *gd1978-01-15.d1t08.flac
14d9ada7646ba5a2faada9542a74a961 *gd1978-01-15.d1t09.flac
e5e912df8f9cf5d5a6ee91718a522830 *gd1978-01-15.d2t01.flac
6739436e1e93a370a0f34d8c9443b04d *gd1978-01-15.d2t02.flac
9949ab7fca89d55de046e314a83cc949 *gd1978-01-15.d2t03.flac
5b83b59ece37c181e0664a5e037e8153 *gd1978-01-15.d2t04.flac
eb6ccce9087373dcbbd3db01e5bfc3a1 *gd1978-01-15.d2t05.flac
2d0c9ab2345c9df4d75ccf2d2a9acf35 *gd1978-01-15.d3t01.flac
2399d96aacd20eca34af8661d5f4cca8 *gd1978-01-15.d3t02.flac
6468d722e5b44dda01571fad84328d42 *gd1978-01-15.d3t03.flac
ffp
gd1978-01-15.d1t01.flac:d1477706b0297ddd491cf5f55a74430e
gd1978-01-15.d1t02.flac:89b55d713d4122928df67292c66a73e2
gd1978-01-15.d1t03.flac:ad0ca8467e2200e57a6ce132d59e4cdc
gd1978-01-15.d1t04.flac:1c258a0e2b31767cb18aa0fe5596b73e
gd1978-01-15.d1t05.flac:ef09926dd3de02dbfac6598233ca60e1
gd1978-01-15.d1t06.flac:fffc88bb6d63d629f5ddc4b590318c0a
gd1978-01-15.d1t07.flac:82197824b2a98cd9949d6b3beddb3b58
gd1978-01-15.d1t08.flac:bcc9c6fe1a0f1db03c80f5d951a6e38c
gd1978-01-15.d1t09.flac:1a7b1a88447f4111891bfce3f43249f0
gd1978-01-15.d2t01.flac:101bee4c510331f1e14653900cdc09cc
gd1978-01-15.d2t02.flac:740a03feb84b661a28a876544f469e19
gd1978-01-15.d2t03.flac:5fca1ae30b29fdfc98537dcc14beab23
gd1978-01-15.d2t04.flac:a6fc1d914ee8a33b65fd1de1a24d4d3a
gd1978-01-15.d2t05.flac:b414d31f6a1bc5798d1f60a883c68ae6
gd1978-01-15.d3t01.flac:427440575664b2a2fa84567bba6b8e54
gd1978-01-15.d3t02.flac:249816fe3b2924a165e571a31dc0a6cd
gd1978-01-15.d3t03.flac:de831fc2c9aae2d13df4ae905901bec1

Comments
Other Sources (comments)
mixed source: set 1: SBD>... (0) flac16 ;... (0)
Date User Comment
etreedb.org
For administrative requests email contact@etreedb.org
This website written by Tom H Anderson and maintained by the etreedb.org community.

Cached: Sun, 20 Oct 2019 02:49:00 EDT