Grateful Dead 09/15/78
Gizah Sound and Light Theater, Cairo, Egypt
Source Summary
flac16; 2 x Sony ecm 280 mics >> Sony 153sd >> MAC >> Nakamichi CR7a => Korg MR-1000 >> DSF [1-bit 5.6448 MHz Stereo] >> Korg MR-1000 => Korg AudioGate >> WAV [24/96] > flac16; Taped By: Eldon Porray
MOTB Release: 0138 16/44.1
Release Date: 2010-04-24
Band: Grateful Dead
Date: 1978-09-15 (Friday)
Venue: Gizah Sound And Light Theater
Location: Cairo, Egypt
Analog Audience Source: FOB Master Cassettes (MAC)
Medium Stock Brands: MAC = 3 x Maxell UDXL 90
Analog Lineage: 2 x Sony ecm 280 mics >> Sony 153sd >> MAC
Analog Sound Preservation: MAC >> Nakamichi CR7a => Korg MR-1000 >> DSF [1-bit 5.6448 MHz Stereo] >> Korg MR-1000 => Korg AudioGate >> WAV [24/96]
Taped By: Eldon Porray
Transfer By: Bob Menke
Mastering By: Bill Koucky, Derek McCabe

Disc One
Set 1:

d1t01: Ollin Arrageed * >
d1t02: Promised Land
d1t03: Friend Of The Devil
d1t04: Mama Tried >
d1t05: Big River
d1t06: Loser
d1t07: I Need A Miracle
d1t08: Stagger Lee

Disc Two
Set 2:

d2t01: Jack Straw
d2t02: Ship Of Fools
d2t03: Estimated Prophet >
d2t04: Eyes Of The World >
d2t05: Drums >
d2t06: Space >
d2t07: Terrapin Station >
d2t08: Sugar Magnolia

No Encore

*with Hamza El-Din

Mastering Notes:

Patch source shnid 4160 used for Mama Tried > Big River and Jack Straw
Jack Straw source is not from the FOB source, its from a taper further back, unknown mics



length     expanded size    cdr  WAVE problems  fmt   ratio  filename
    10:00.72      106009388 B   ---   --   ---xx   flac  0.5559  gd1978-09-15.aud.porray-menke.motb.d1t01.flac
     4:53.06       51699356 B   ---   --   ---xx   flac  0.5931  gd1978-09-15.aud.porray-menke.motb.d1t02.flac
     9:10.58       97156460 B   ---   --   ---xx   flac  0.5412  gd1978-09-15.aud.porray-menke.motb.d1t03.flac
     2:42.17       28616828 B   ---   --   ---xx   flac  0.5551  gd1978-09-15.aud.porray-menke.motb.d1t04.flac
     7:53.21       83486636 B   ---   --   ---xx   flac  0.5420  gd1978-09-15.aud.porray-menke.motb.d1t05.flac
     9:30.53      100672700 B   ---   --   ---xx   flac  0.5292  gd1978-09-15.aud.porray-menke.motb.d1t06.flac
     7:49.72       82900988 B   ---   --   ---xx   flac  0.5535  gd1978-09-15.aud.porray-menke.motb.d1t07.flac
     6:53.35       72935564 B   ---   --   ---xx   flac  0.5606  gd1978-09-15.aud.porray-menke.motb.d1t08.flac
     5:53.05       62281004 B   ---   --   ---xx   flac  0.5359  gd1978-09-15.aud.porray-menke.motb.d2t01.flac
     8:54.03       94204700 B   ---   --   ---xx   flac  0.5346  gd1978-09-15.aud.porray-menke.motb.d2t02.flac
    12:10.04      128781452 B   ---   --   ---xx   flac  0.5592  gd1978-09-15.aud.porray-menke.motb.d2t03.flac
    13:26.51      142298396 B   ---   --   ---xx   flac  0.5641  gd1978-09-15.aud.porray-menke.motb.d2t04.flac
    11:51.60      125561564 B   ---   --   ---xx   flac  0.2909  gd1978-09-15.aud.porray-menke.motb.d2t05.flac
     5:55.53       62746700 B   ---   --   ---xx   flac  0.3676  gd1978-09-15.aud.porray-menke.motb.d2t06.flac
    11:34.69      122583932 B   ---   --   ---xx   flac  0.5507  gd1978-09-15.aud.porray-menke.motb.d2t07.flac
    10:45.22      113829788 B   ---   --   ---xx   flac  0.5796  gd1978-09-15.aud.porray-menke.motb.d2t08.flac
   139:26.01     1475765456 B                            0.5234  (16 files)
9b269c79eb509d1adf94c2130260de8f *gd1978-09-15.aud.porray-menke.motb.d1t01.flac
1fabdadef916fe0293fa0773eb58adf3 *gd1978-09-15.aud.porray-menke.motb.d1t02.flac
598e9ad93e69f208a1cb8df129354420 *gd1978-09-15.aud.porray-menke.motb.d1t03.flac
150424f73a2e5e5358a0543786bfab97 *gd1978-09-15.aud.porray-menke.motb.d1t04.flac
5bbb2e135ea0be3ee75cc51dfc09e37f *gd1978-09-15.aud.porray-menke.motb.d1t05.flac
1c1c8512d45f47f0fd14cf2adeb04504 *gd1978-09-15.aud.porray-menke.motb.d1t06.flac
d62b605775d603aafab4b1e172345571 *gd1978-09-15.aud.porray-menke.motb.d1t07.flac
37d6c03d4af7759c7e2e9a358dba810e *gd1978-09-15.aud.porray-menke.motb.d1t08.flac
8108b20f778ef61c7632f8635dda68a8 *gd1978-09-15.aud.porray-menke.motb.d2t01.flac
1e391214a8c077a16762a10032437d8a *gd1978-09-15.aud.porray-menke.motb.d2t02.flac
85656f3c5b6f1e4309789449b5dd269f *gd1978-09-15.aud.porray-menke.motb.d2t03.flac
0c9c1dd7beb0b4cd81b07450f896c2f7 *gd1978-09-15.aud.porray-menke.motb.d2t04.flac
44f22005fb6ad06f39c7d22f44ad99c2 *gd1978-09-15.aud.porray-menke.motb.d2t05.flac
38b8935f9928f6d7bd7140d96ce9cfc9 *gd1978-09-15.aud.porray-menke.motb.d2t06.flac
73b0b1e5a938351037a9236bf59c1d52 *gd1978-09-15.aud.porray-menke.motb.d2t07.flac
413414509232cb03c9eb8f05adc6df30 *gd1978-09-15.aud.porray-menke.motb.d2t08.flac
ffp
gd1978-09-15.aud.porray-menke.motb.d1t01.flac:d1137a0c63d3a819629a31e1e1752122
gd1978-09-15.aud.porray-menke.motb.d1t02.flac:5566a82826b0a42ba9205480357a890a
gd1978-09-15.aud.porray-menke.motb.d1t03.flac:521339a8e411c138da7e0d336f76135a
gd1978-09-15.aud.porray-menke.motb.d1t04.flac:6654773a875e5a25693c986f03344324
gd1978-09-15.aud.porray-menke.motb.d1t05.flac:1dde7c2d193043fc70ff59f916f146ad
gd1978-09-15.aud.porray-menke.motb.d1t06.flac:4b1d033eb7113850c5733b0f624a9f1d
gd1978-09-15.aud.porray-menke.motb.d1t07.flac:fdb5642bbdbeaae157552478cd226c55
gd1978-09-15.aud.porray-menke.motb.d1t08.flac:8875e1cfeebea4ecc225c48bc2949f42
gd1978-09-15.aud.porray-menke.motb.d2t01.flac:9a2b173ecf79501a4a7fec9bedfc9aa9
gd1978-09-15.aud.porray-menke.motb.d2t02.flac:0b263f99336d723cfd415f0c22ef4d54
gd1978-09-15.aud.porray-menke.motb.d2t03.flac:f9b1458ca93887097dd26272aa6ba276
gd1978-09-15.aud.porray-menke.motb.d2t04.flac:9a5eace565c452f00fc12ee3669fdc02
gd1978-09-15.aud.porray-menke.motb.d2t05.flac:2cf49f5af0ab33c8fa5958fc10083cbe
gd1978-09-15.aud.porray-menke.motb.d2t06.flac:5143bcc37b1efd781d334e8dbf973b54
gd1978-09-15.aud.porray-menke.motb.d2t07.flac:5ce54b478111b905ccb18a0e601e92a2
gd1978-09-15.aud.porray-menke.motb.d2t08.flac:addee79acb2a0ab71ebacb6faf625320

Comments
etreedb.org
For administrative requests email contact@etreedb.org
This website written by Tom H Anderson and maintained by the etreedb.org community.

Cached: Tue, 17 Sep 2019 13:20:58 EDT