Grateful Dead 09/16/78
Gizah Sound and Light Theater, Cairo, Egypt
Source Summary
flac16; 2 x Sony ecm 280 mics >> Sony 153sd >> MAC >> Nakamichi CR7a => Korg MR-1000 >> DSF [1-bit 5.6448 MHz Stereo] >> Korg MR-1000 => Korg AudioGate >> WAV [24/96] > flac16; Taped By: Eldon Porray
MOTB Release: 0139 16/44.1
Release Date: 2010-04-24
Band: Grateful Dead
Date: 1978-09-16   (Saturday)
Venue: Gizah Sound And Light Theater
Location: Cairo, Egypt
Analog Audience Source: FOB Master Cassettes (MAC)
Medium Stock Brands: MAC = 3 x Maxell UDXL 90
Analog Lineage: 2 x Sony ecm 280 mics >> Sony 153sd >> MAC
Analog Sound Preservation: MAC >> Nakamichi CR7a => Korg MR-1000 >> DSF [1-bit 5.6448 MHz

Stereo] >> Korg MR-1000 => Korg AudioGate >> WAV [24/96]
Taped By: Eldon Porray
Transfer By: Bob Menke
Mastering By: Bill Koucky, Derek McCabe

CD ONE:
Set 1:
d1t01 Tuning
d1t02 Bertha >
d1t03 Good Lovin'
d1t04 Candyman
d1t05 Looks Like Rain
d1t06 Row Jimmy
d1t07 El Paso
d1t08 Ramble On Rose
d1t09 Minglewood Blues
d1t10 Deal

CD TWO:
Set 2:
d2t01 Ollin Arrageed * >
d2t02 Fire On The Mountain >
d2t03 Iko Iko
d2t04 Tuning
d2t05 I Need A Miracle >
d2t06 It's All Over Now
d2t07 Sunrise

CD THREE:
d3t01   Shakedown Street >
d3t02 Drums * >
d3t03 Space * >
d3t04 Truckin' >
d3t05 Stella Blue >
d3t06 Around & Around
Encore:
d3t07 One More Saturday Night

*with Hamza El-Din
final Sunrise

Mastering Notes:
Tape flips were after Looks Like Rain, Minglewood, Iko Iko, and Drums,
minor crossfades were applied with no patch sources.


length     expanded size    cdr  WAVE problems  fmt   ratio  filename
     1:55.71       20453036 B   ---   --   ---xx   flac  0.3799  gd1978-09-16.aud.porray-

menke.d1t01.flac
     7:39.43       81068780 B   ---   --   ---xx   flac  0.5930  gd1978-09-16.aud.porray-

menke.d1t02.flac
     8:05.47       85664588 B   ---   --   ---xx   flac  0.5772  gd1978-09-16.aud.porray-

menke.d1t03.flac
     8:25.00       89082044 B   ---   --   ---xx   flac  0.5134  gd1978-09-16.aud.porray-

menke.d1t04.flac
    10:10.67      107761628 B   ---   --   ---xx   flac  0.5092  gd1978-09-16.aud.porray-

menke.d1t05.flac
    11:47.38      124804220 B   ---   --   ---xx   flac  0.5562  gd1978-09-16.aud.porray-

menke.d1t06.flac
     5:27.62       57828668 B   ---   --   ---xx   flac  0.5356  gd1978-09-16.aud.porray-

menke.d1t07.flac
     8:38.61       91518716 B   ---   --   ---xx   flac  0.5295  gd1978-09-16.aud.porray-

menke.d1t08.flac
     7:09.10       75699164 B   ---   --   ---xx   flac  0.5884  gd1978-09-16.aud.porray-

menke.d1t09.flac
     7:03.52       74739548 B   ---   --   ---xx   flac  0.6108  gd1978-09-16.aud.porray-

menke.d1t10.flac
    16:58.00      179575244 B   ---   --   ---xx   flac  0.5368  gd1978-09-16.aud.porray-

menke.d2t01.flac
    13:54.15      147152924 B   ---   --   ---xx   flac  0.5747  gd1978-09-16.aud.porray-

menke.d2t02.flac
     6:54.24       73086092 B   ---   --   ---xx   flac  0.5778  gd1978-09-16.aud.porray-

menke.d2t03.flac
     1:59.50       21109244 B   ---   --   ---xx   flac  0.4249  gd1978-09-16.aud.porray-

menke.d2t04.flac
     5:39.65       59952524 B   ---   --   ---xx   flac  0.5803  gd1978-09-16.aud.porray-

menke.d2t05.flac
     7:53.71       83604236 B   ---   --   ---xx   flac  0.5569  gd1978-09-16.aud.porray-

menke.d2t06.flac
     6:35.15       69713324 B   ---   --   ---xx   flac  0.4713  gd1978-09-16.aud.porray-

menke.d2t07.flac
    15:50.46      167688236 B   ---   --   ---xx   flac  0.5685  gd1978-09-16.aud.porray-

menke.d2t08.flac
     9:26.28       99908300 B   ---   --   ---xx   flac  0.5120  gd1978-09-16.aud.porray-

menke.d3t01.flac
     7:24.45       78427484 B   ---   --   ---xx   flac  0.4969  gd1978-09-16.aud.porray-

menke.d3t02.flac
     9:40.25      102370844 B   ---   --   ---xx   flac  0.5496  gd1978-09-16.aud.porray-

menke.d3t03.flac
     9:09.20       96890684 B   ---   --   ---xx   flac  0.4936  gd1978-09-16.aud.porray-

menke.d3t04.flac
    10:33.04      111670652 B   ---   --   ---xx   flac  0.5379  gd1978-09-16.aud.porray-

menke.d3t05.flac
     5:30.63       58360220 B   ---   --   ---xx   flac  0.5697  gd1978-09-16.aud.porray-

menke.d3t07.flac
   203:54.22     2158130400 B                            0.5441  (24 files)



3d8570e8180922e592836837af893003 *gd1978-09-16.aud.porray-menke.d1t01.flac
365661dd1858cc2807c2c7f63852cc40 *gd1978-09-16.aud.porray-menke.d1t02.flac
4ced4c03ba7699e07d5bb9a32ee26ac9 *gd1978-09-16.aud.porray-menke.d1t03.flac
2b9d98d74eb54cb8e22eee6669617a2c *gd1978-09-16.aud.porray-menke.d1t04.flac
0b4b33961553bd6b6ad2846c72277cc9 *gd1978-09-16.aud.porray-menke.d1t05.flac
9fe41c3425ccd3c38bfdb1dd547bf8fb *gd1978-09-16.aud.porray-menke.d1t06.flac
28fa6dd6d52d606b85c58bcab06714ed *gd1978-09-16.aud.porray-menke.d1t07.flac
ccfe3e210574ac60a17cf6529ace1e07 *gd1978-09-16.aud.porray-menke.d1t08.flac
0638d6326a1d4ce2d0f4c1aad8fcad28 *gd1978-09-16.aud.porray-menke.d1t09.flac
fd42a5a866b6e50f1a15ea21f245fc76 *gd1978-09-16.aud.porray-menke.d1t10.flac
e094ffd8cc2c11e111e7cd1639b23fcd *gd1978-09-16.aud.porray-menke.d2t01.flac
6b84651752564c9bf52b046e98e1a4d3 *gd1978-09-16.aud.porray-menke.d2t02.flac
23d9b3eab2575764ab6691cbb76f6e95 *gd1978-09-16.aud.porray-menke.d2t03.flac
23dbdb7931c7fb83963af162efc83ba5 *gd1978-09-16.aud.porray-menke.d2t04.flac
345e5dcb210ba6f3b2bbfe9dd3ad5480 *gd1978-09-16.aud.porray-menke.d2t05.flac
aedc70f8bd6eea5c4f8331cdcee99c47 *gd1978-09-16.aud.porray-menke.d2t06.flac
363a227983a70ed0d8e07b5b11a66d86 *gd1978-09-16.aud.porray-menke.d2t07.flac
71f7ae971b9a5447d764a7438ddacdba *gd1978-09-16.aud.porray-menke.d3t01.flac
2689cce63eb30ab336dc5a1d7f64ce02 *gd1978-09-16.aud.porray-menke.d3t02.flac
f7cccd61feb7e9cba66cdafc506a70da *gd1978-09-16.aud.porray-menke.d3t03.flac
da86fae8bdf5c04f58f1d484da15d9ef *gd1978-09-16.aud.porray-menke.d3t04.flac
26f27967fd6363a9d704229d4276512a *gd1978-09-16.aud.porray-menke.d3t05.flac
75993097c1c8119c2319a36746f92e9a *gd1978-09-16.aud.porray-menke.d3t06.flac
a1d9d2c90a02e4c369c71043f9ca3faf *gd1978-09-16.aud.porray-menke.d3t07.flac
ffp
gd1978-09-16.aud.porray-menke.d1t01.flac:3b0568f798383288b36a3ac50c135eda
gd1978-09-16.aud.porray-menke.d1t02.flac:21052d84b25600dec7d42bb9b17d98c6
gd1978-09-16.aud.porray-menke.d1t03.flac:ffcd360a001332bac6f5681b2aedd6b3
gd1978-09-16.aud.porray-menke.d1t04.flac:43481f7a3f4c1791c242295e1847bdea
gd1978-09-16.aud.porray-menke.d1t05.flac:6faf98d5f1d75f5f10df97e3a3e44363
gd1978-09-16.aud.porray-menke.d1t06.flac:fc1bcd4d051993cb3130948ab6dcff18
gd1978-09-16.aud.porray-menke.d1t07.flac:ef75eb8b149fc157bac0c4d0dee1e055
gd1978-09-16.aud.porray-menke.d1t08.flac:7ff06e4d67fe9cace79560f58e61a3d7
gd1978-09-16.aud.porray-menke.d1t09.flac:57184de0367ed00b701c615842422a83
gd1978-09-16.aud.porray-menke.d1t10.flac:8e2eda1e4162a1cccee9984f7ec352f0
gd1978-09-16.aud.porray-menke.d2t01.flac:181db06f76c3ed4b0f6c08cc34a8e1ae
gd1978-09-16.aud.porray-menke.d2t02.flac:59ab2d3438ed54cbf88d72b640939073
gd1978-09-16.aud.porray-menke.d2t03.flac:646d0e1482130c3ff7a6fe20abf55e35
gd1978-09-16.aud.porray-menke.d2t04.flac:9df6aa275ee4e3e5ebe4278c8b6023af
gd1978-09-16.aud.porray-menke.d2t05.flac:29490014cd0ad5925d857161835ba130
gd1978-09-16.aud.porray-menke.d2t06.flac:f4c2f3bad21d7c8fb5df5b18ce9e0ce7
gd1978-09-16.aud.porray-menke.d2t07.flac:650f770c992aa27202f39ed8ee1383e7
gd1978-09-16.aud.porray-menke.d3t01.flac:ede7959a2d4115d7eeb8c3ea2f4452c5
gd1978-09-16.aud.porray-menke.d3t02.flac:939c331506d4981dbfd718b80d536ea3
gd1978-09-16.aud.porray-menke.d3t03.flac:5bac9adfcaee58b9b0e8d6b7450f36a3
gd1978-09-16.aud.porray-menke.d3t04.flac:4f95ba043a79708ceaf259c9aae29313
gd1978-09-16.aud.porray-menke.d3t05.flac:b396c2b53784766f3544513421cb8b2f
gd1978-09-16.aud.porray-menke.d3t06.flac:3772d4239441a76480d940a5eb54f7eb
gd1978-09-16.aud.porray-menke.d3t07.flac:5281a42e11cee5a741f43fbfa9314e23

Comments
etreedb.org
For administrative requests email contact@etreedb.org
This website written by Tom H Anderson and maintained by the etreedb.org community.

Cached: Wed, 16 Oct 2019 18:27:04 EDT