Back Door Slam 11/14/08
Pantages Theatre, Minneapolis, MN
Source # 107701
Entered by Mark Goldey
Checksums ffp
Disc Counts 0 / 0
Media Size Compressed: 314.11 MB (329364892 bytes)
Date Circulated
Date Added
11/15/08
05/12/2010
Source Summary
Source: Schoeps CCM4V'S(din)>Lunatec V2>Sound Devices 722 (24/48)
Location: FOB/DFC/KFC/ZFC/AARP Row F, Between Seats 108 & 109, 7' High
DSP: Sound Devices 722>Sound Forge 7.0>CD Wave>flac(16)
Recorded By: Z-Man
Back Door Slam
Pantages Theatre
Minneapolis, Minnesota
11/14/2008

Source: Schoeps CCM4V'S(din)>Lunatec V2>Sound Devices 722 (24/48)
Location: FOB/DFC/KFC/ZFC/AARP Row F, Between Seats 108 & 109, 7' High
DSP: Sound Devices 722>Sound Forge 7.0>CD Wave>flac(16)
Recorded By: Z-Man
Seeded By: Z-Man

Disc I 1st Set

01 Outside Woman Blues >
02
03 Come Home
04 What In The World
05 It'll All Come Around

backdoorslam2008-11-14d01t01.flac:5fa7eb71e4b3dc46e63630757c711979
backdoorslam2008-11-14d01t02.flac:0d1b451a1662b945f19f78397b0d7964
backdoorslam2008-11-14d01t03.flac:9b2e0c9357ec068ba7534dee8583d6fb
backdoorslam2008-11-14d01t04.flac:fbb08a67264521db5cd7534ac87525b3
backdoorslam2008-11-14d01t05.flac:bf0fdc7b1de5c041b908d2aec928b95d

shntool 3.0.4
Copyright (C) 2000-2007 Jason Jordan

    length     expanded size    cdr  WAVE problems  fmt   ratio  filename
     4:19.71       45854636 B   ---   --   ---xx   flac  0.5580  backdoorslam2008-11-14d01t01.flac
     5:19.42       56370428 B   ---   --   ---xx   flac  0.5355  backdoorslam2008-11-14d01t02.flac
     4:50.57       51290108 B   ---   --   ---xx   flac  0.5155  backdoorslam2008-11-14d01t03.flac
    10:18.13      109045820 B   ---   --   ---xx   flac  0.5021  backdoorslam2008-11-14d01t04.flac
     6:18.53       66803900 B   ---   --   ---xx   flac  0.5436  backdoorslam2008-11-14d01t05.flac
    31:07.11      329364892 B                            0.5261  (5 files)




ffp
backdoorslam2008-11-14d01t01.flac:5fa7eb71e4b3dc46e63630757c711979
backdoorslam2008-11-14d01t02.flac:0d1b451a1662b945f19f78397b0d7964
backdoorslam2008-11-14d01t03.flac:9b2e0c9357ec068ba7534dee8583d6fb
backdoorslam2008-11-14d01t04.flac:fbb08a67264521db5cd7534ac87525b3
backdoorslam2008-11-14d01t05.flac:bf0fdc7b1de5c041b908d2aec928b95d

Comments
Other Sources (comments)
Source: Microtech Gefell... (0)
Date User Comment
etreedb.org
For administrative requests email contact@etreedb.org
This website written by Tom H Anderson and maintained by the etreedb.org community.

Cached: Fri, 19 Apr 2024 11:16:39 EDT