Magnolia Electric Co. 11/02/08
The Bluebird, St. Louis, MO
Source # 108714
Entered by Matt Vernon
Checksums ffp , flac-md5
Disc Counts 0 / 0
Media Size
Date Circulated
Date Added
12/09/08
07/08/2010
Download Text | Download Zip
Other Sources
Source Summary
audience recording (Sonics > D8 > DAT)
Magnolia Electric Company
Sunday, November 2, 2008
The Bluebird
St Louis, Missouri, USA

audience recording (Sonics > D8 > DAT)

Setlist:
01. London Bridge
02. Love Letter from the Ace of Spades
03. In The Human World
04. Rock of Ages
05. Shiloh Temple Bell
06. The Farewell Transmission
07. Oh Grace
08. Josephine
09. Talk To Me Devil, Again
10. Blackbird
11. I\'ve Been Riding With The Ghost
12. John Henry Split My Heart
13. There Will Always Be A West

SHNTOOL:
    length     expanded size    cdr  WAVE problems  fmt   ratio  filename
     7:55.09       83811212 B   ---   --   ---xx  MECo2008-11-02t01.flac
     3:12.07       33885308 B   ---   --   ---xx  MECo2008-11-02t02.flac
     4:03.04       42874652 B   ---   --   ---xx  MECo2008-11-02t03.flac
     1:38.04       17296652 B   ---   --   ---xx  MECo2008-11-02t04.flac
     4:38.18       49081580 B   ---   --   ---xx  MECo2008-11-02t05.flac
     7:25.47       78608588 B   ---   --   ---xx  MECo2008-11-02t06.flac
     3:40.05       38819804 B   ---   --   ---xx  MECo2008-11-02t07.flac
     3:44.58       39650060 B   ---   --   ---xx  MECo2008-11-02t08.flac
     7:22.14       78001772 B   ---   --   ---xx  MECo2008-11-02t09.flac
     5:01.60       53237564 B   ---   --   ---xx  MECo2008-11-02t10.flac
     8:25.34       89162012 B   ---   --   ---xx  MECo2008-11-02t11.flac
    12:22.71      131055836 B   ---   --   ---xx  MECo2008-11-02t12.flac
     3:00.16       31789676 B   ---   --   ---xx  MECo2008-11-02t13.flac
    72:29.47      767274716 B                            0.4168  (13 files)
ffp
MECo2008-11-02t01.flac:aa1f932a44341e3adbd0bb0ec315c6d2
MECo2008-11-02t02.flac:c63d9c70d24eb531e86b127fbff29f18
MECo2008-11-02t03.flac:cbd558778731323fca6a89cae4a13979
MECo2008-11-02t04.flac:60e44334eec511924ff74c73b893d3ee
MECo2008-11-02t05.flac:e9cf3137b05f3d59f3a4159e34d2c03c
MECo2008-11-02t06.flac:eadae92d772de2393118092a31683998
MECo2008-11-02t07.flac:39ce1a253b4d5a965fc0a989374fa997
MECo2008-11-02t08.flac:b8d18e17e3c143eccd3117c8c563ed2a
MECo2008-11-02t09.flac:0a5f89b5798f886ca00707c14213a2e7
MECo2008-11-02t10.flac:aacd0c2dd7216fe498f1fb2855c6d7cd
MECo2008-11-02t11.flac:bcea354b6132e4e9630088380b9ec0ed
MECo2008-11-02t12.flac:be95fd76c6be449f4397e213b7c5b151
MECo2008-11-02t13.flac:eba49f83d99b26c2f434e93be80292af

b534776463edfd6f00aca8e431b38458 *MECo2008-11-02t01.flac
67c47ac18128b53d62a627e65d0f4c1b *MECo2008-11-02t02.flac
959b2c9444fc731b2ae11a8aaa818b9b *MECo2008-11-02t03.flac
a18a7ab4d5241ccb0202edc8f90e8bdf *MECo2008-11-02t04.flac
b4179e34687c5510803da06860f9c108 *MECo2008-11-02t05.flac
db404dea8b2f71455e0ab80c51c23769 *MECo2008-11-02t06.flac
1e2ff9fd4b0e3d431ee8cd39f30a3ebb *MECo2008-11-02t07.flac
cad7041a4237dc11401605599a2d96a8 *MECo2008-11-02t08.flac
8ac84cef46b7a03c02627b2f300c7492 *MECo2008-11-02t09.flac
9bbe508185b835b6db89072e009f0e30 *MECo2008-11-02t10.flac
b49d59e449283d249aca77df10b8268e *MECo2008-11-02t11.flac
bd238c1a05c3f37b85449ff6e3b2656e *MECo2008-11-02t12.flac
90773985a24fe49e3ff1f1dd4cff8049 *MECo2008-11-02t13.flacf

Comments
Date User Comment
etreedb.org
For administrative requests email contact@etreedb.org
This website written by Tom H Anderson and maintained by the etreedb.org community.

Cached: Tue, 27 Feb 2024 09:30:07 EST