Grateful Dead 05/14/78
Providence Civic Center, Providence, RI
Source Summary
flac16;AUD: 1x AKG D200E (mono recording) > Sony TC-153SD > Maxell UD-XLII 90's. Recorded from lower arena riser, first section to left of stage, Section 110 Row G. Taped by Tim Friend. Transfer: MAC > Nakamichi CR-5A > Edirol FA-66 > Wavelab > R8Brain > CD-Wave > TLH > FLAC 1644 Tagged. Transfer by Andrew F. 07/2010
GRATEFUL DEAD
Civic Center
Providence RI
05-14-1978

16bit/44.1kHz file-set

s1t01 crowd & tuning
s1t02 Mississippi Half Step
s1t03 Cassidy
s1t04 They Love Eachother
s1t05 Looks Like Rain
s1t06 It Must Have Been the Roses
s1t07 Me & My Uncle >
s1t08 Big River
s1t09 Brown Eyed Women
s1t10 Let it Grow

s2t01 Samson & Delilah
s2t02 Ship of Fools
s2t03 Estimated Prophet >
s2t04 Eyes of the World >
s2t05 Drums >
s2t06 Not Fade Away >
s2t07 Goin' Down the Road >
s2t08 Around & Around
s2t09 Encore: U.S. Blues

AUD: 1x AKG D200E (mono recording) > Sony TC-153SD > Maxell
UD-XLII 90's. Recorded from lower arena riser, first section
to left of stage, Section 110 Row G. Taped by Tim Friend.

Transfer: MAC > Nakamichi CR-5A > Edirol FA-66 > Wavelab >
R8Brain > CD-Wave > TLH > FLAC 1644 Tagged. Transfer by
Andrew F. 07/2010

Nice clear mono recording, not much audience noise, you
have to listen with your third eye...enjoy! Patches from
ID-7639 mixed down to mono and added at Eyes 11:25 > 11:35
and 4:59 of Around & Around through to end of the show.

4db4a2b2141a892c0a0b7b38f4e54f03 *gd1978-05-14s1t01.flac
8807779c5bb23ec16623ba908c6b6e8b *gd1978-05-14s1t02.flac
f681f7efb2eb7916e0020df794cf618c *gd1978-05-14s1t03.flac
e3b9f31301448877a651c42079ddaff6 *gd1978-05-14s1t04.flac
2827e97a578c53f2cad37fa51113529f *gd1978-05-14s1t05.flac
7053515d021d2f47363be2af5d0b1ebb *gd1978-05-14s1t06.flac
398274f9dfed3908789a98464dd56626 *gd1978-05-14s1t07.flac
c8e9f413ca265461640f699d1c49fa2f *gd1978-05-14s1t08.flac
9ad2958fa2b9c5d5a8b164b9a3501c0d *gd1978-05-14s1t09.flac
8a185d92a88e49ab246fbd31e1573381 *gd1978-05-14s1t10.flac
60d7a753e45b1340f923fef48c5b5c5b *gd1978-05-14s2t01.flac
6ac097bb8aee09be11dd09a0ef273515 *gd1978-05-14s2t02.flac
7a47bbd17aa4a04a3b19ea38b31db69e *gd1978-05-14s2t03.flac
54279a9a91747c59f1a94c33d402785c *gd1978-05-14s2t04.flac
af5245128479da8958cb169ebd46a47e *gd1978-05-14s2t05.flac
8b2210b840767d49d17e0b7c0fe290b0 *gd1978-05-14s2t06.flac
50806fd1a0a1dd007af4d80914c3406a *gd1978-05-14s2t07.flac
6acf1c04bc468592dc711dba514bc58e *gd1978-05-14s2t08.flac
40583fbb4ff248f694538abd25b85ab8 *gd1978-05-14s2t09.flac

gd1978-05-14s1t01.flac:56337cc0d78f9029c21b899fe35a955f
gd1978-05-14s1t02.flac:dd7efa32f06195ee192036f4a4f4d545
gd1978-05-14s1t03.flac:7c0966c54d5dabe4cb33f2152bf0b0eb
gd1978-05-14s1t04.flac:2d1782581f495f282678d89668765a4e
gd1978-05-14s1t05.flac:4c2ef4b82314f40c0102267578c35e4e
gd1978-05-14s1t06.flac:3011fb61857dccb29545acb83bd1f553
gd1978-05-14s1t07.flac:15b4d3e467cad69070e2636bd7d902e4
gd1978-05-14s1t08.flac:5856592fd2dec52b74ece6bb0c075a80
gd1978-05-14s1t09.flac:c5cdbca6bcec4d7f1c277c298202a919
gd1978-05-14s1t10.flac:9a5631f5b56b4c5486c6bdf8f58948d6
gd1978-05-14s2t01.flac:4524d8a15830912cc4ef1fe1fbc7c394
gd1978-05-14s2t02.flac:95876b3e33abf6503da824cf701c9320
gd1978-05-14s2t03.flac:c8feb4ff5320aa2d18bd5750a53ec700
gd1978-05-14s2t04.flac:c45b5044e939e944d1070683584b3b01
gd1978-05-14s2t05.flac:01e676c96fdd1500f2935573070d05f0
gd1978-05-14s2t06.flac:fa9bfabeb4a397d37dcc5770e6a8fdb6
gd1978-05-14s2t07.flac:060a9a546e37e6c973c55565a404013a
gd1978-05-14s2t08.flac:018c01877bfdfe217d1a81d8c2d6b7ad
gd1978-05-14s2t09.flac:7324f80a31b66090de69f8dd080c6fbb

    length     expanded size    cdr  WAVE problems  fmt   ratio  filename
     1:05.35       11548364 B   ---   --   ---xx   flac  0.5564  gd1978-05-14s1t01.flac
    12:39.46      133995836 B   ---   --   ---xx   flac  0.5674  gd1978-05-14s1t02.flac
     5:52.61       62236316 B   ---   --   ---xx   flac  0.5802  gd1978-05-14s1t03.flac
     7:36.50       80556044 B   ---   --   ---xx   flac  0.5676  gd1978-05-14s1t04.flac
     9:52.51      104548796 B   ---   --   ---xx   flac  0.5542  gd1978-05-14s1t05.flac
     7:19.63       77587820 B   ---   --   ---xx   flac  0.5548  gd1978-05-14s1t06.flac
     2:57.41       31319276 B   ---   --   ---xx   flac  0.5845  gd1978-05-14s1t07.flac
     6:34.37       69588668 B   ---   --   ---xx   flac  0.5804  gd1978-05-14s1t08.flac
     6:53.00       72853244 B   ---   --   ---xx   flac  0.5553  gd1978-05-14s1t09.flac
    18:02.16      190902476 B   ---   --   ---xx   flac  0.5629  gd1978-05-14s1t10.flac
    11:45.58      124498460 B   ---   --   ---xx   flac  0.5610  gd1978-05-14s2t01.flac
     8:38.36       91459916 B   ---   --   ---xx   flac  0.5404  gd1978-05-14s2t02.flac
    13:41.43      144925580 B   ---   --   ---xx   flac  0.5581  gd1978-05-14s2t03.flac
    16:09.63      171079820 B   ---   --   ---xx   flac  0.5645  gd1978-05-14s2t04.flac
    12:20.73      130707740 B   ---   --   ---xx   flac  0.5465  gd1978-05-14s2t05.flac
    15:29.12      163903868 B   ---   --   ---xx   flac  0.5544  gd1978-05-14s2t06.flac
     8:02.10       85048364 B   ---   --   ---xx   flac  0.5473  gd1978-05-14s2t07.flac
     8:33.10       90516764 B   ---   --   ---xx   flac  0.4885  gd1978-05-14s2t08.flac
     5:41.39       60244172 B   ---   --   ---xx   flac  0.3880  gd1978-05-14s2t09.flac
   179:16.69     1897521524 B                            0.5508  (19 files)

No errors occured.
ffp
gd1978-05-14s1t01.flac:56337cc0d78f9029c21b899fe35a955f
gd1978-05-14s1t02.flac:dd7efa32f06195ee192036f4a4f4d545
gd1978-05-14s1t03.flac:7c0966c54d5dabe4cb33f2152bf0b0eb
gd1978-05-14s1t04.flac:2d1782581f495f282678d89668765a4e
gd1978-05-14s1t05.flac:4c2ef4b82314f40c0102267578c35e4e
gd1978-05-14s1t06.flac:3011fb61857dccb29545acb83bd1f553
gd1978-05-14s1t07.flac:15b4d3e467cad69070e2636bd7d902e4
gd1978-05-14s1t08.flac:5856592fd2dec52b74ece6bb0c075a80
gd1978-05-14s1t09.flac:c5cdbca6bcec4d7f1c277c298202a919
gd1978-05-14s1t10.flac:9a5631f5b56b4c5486c6bdf8f58948d6
gd1978-05-14s2t01.flac:4524d8a15830912cc4ef1fe1fbc7c394
gd1978-05-14s2t02.flac:95876b3e33abf6503da824cf701c9320
gd1978-05-14s2t03.flac:c8feb4ff5320aa2d18bd5750a53ec700
gd1978-05-14s2t04.flac:c45b5044e939e944d1070683584b3b01
gd1978-05-14s2t05.flac:01e676c96fdd1500f2935573070d05f0
gd1978-05-14s2t06.flac:fa9bfabeb4a397d37dcc5770e6a8fdb6
gd1978-05-14s2t07.flac:060a9a546e37e6c973c55565a404013a
gd1978-05-14s2t08.flac:018c01877bfdfe217d1a81d8c2d6b7ad
gd1978-05-14s2t09.flac:7324f80a31b66090de69f8dd080c6fbb
4db4a2b2141a892c0a0b7b38f4e54f03 *gd1978-05-14s1t01.flac
8807779c5bb23ec16623ba908c6b6e8b *gd1978-05-14s1t02.flac
f681f7efb2eb7916e0020df794cf618c *gd1978-05-14s1t03.flac
e3b9f31301448877a651c42079ddaff6 *gd1978-05-14s1t04.flac
2827e97a578c53f2cad37fa51113529f *gd1978-05-14s1t05.flac
7053515d021d2f47363be2af5d0b1ebb *gd1978-05-14s1t06.flac
398274f9dfed3908789a98464dd56626 *gd1978-05-14s1t07.flac
c8e9f413ca265461640f699d1c49fa2f *gd1978-05-14s1t08.flac
9ad2958fa2b9c5d5a8b164b9a3501c0d *gd1978-05-14s1t09.flac
8a185d92a88e49ab246fbd31e1573381 *gd1978-05-14s1t10.flac
60d7a753e45b1340f923fef48c5b5c5b *gd1978-05-14s2t01.flac
6ac097bb8aee09be11dd09a0ef273515 *gd1978-05-14s2t02.flac
7a47bbd17aa4a04a3b19ea38b31db69e *gd1978-05-14s2t03.flac
54279a9a91747c59f1a94c33d402785c *gd1978-05-14s2t04.flac
af5245128479da8958cb169ebd46a47e *gd1978-05-14s2t05.flac
8b2210b840767d49d17e0b7c0fe290b0 *gd1978-05-14s2t06.flac
50806fd1a0a1dd007af4d80914c3406a *gd1978-05-14s2t07.flac
6acf1c04bc468592dc711dba514bc58e *gd1978-05-14s2t08.flac
40583fbb4ff248f694538abd25b85ab8 *gd1978-05-14s2t09.flac

Comments
Other Sources (comments)
Sony ECM33P7 + AKGD1000e>... (0) flac16 ; Recording... (1) flac16 ; 2 source matrix... (0)
Date User Comment
etreedb.org
For administrative requests email contact@etreedb.org
This website written by Tom H Anderson and maintained by the etreedb.org community.

Cached: Tue, 17 Sep 2019 13:24:12 EDT