Grateful Dead 05/17/78
Uptown Theater, Chicago, IL
Source Summary
flac16; Matrix by Hunter Seamons using Final Cut Pro (SHN & FLAC > AIFF > Final Cut > AIFF CD tracking via Audacity > FLAC16 via xACT)
Grateful Dead
Uptown Theatre
Chicago, IL
May 17, 1978

Jerry Garcia - Lead Guitar, Vocals
Donna Jean Godchaux - Vocals
Keith Godchaux - Keyboards
Mickey Hart - Drums
Bill Kreutzmann - Drums
Phil Lesh - Electric Bass, Vocals
Bob Weir - Rhythm Guitar, Vocals



*Matrix*

----------------------------------------------------
SBD (shnid=109000):

Recording Info:
SBD -> Cassette Master -> Dat -> CD

Transfer Info:
CD -> Samplitude Professional v10.1 -> FLAC
(3 Discs Audio / 2 Discs FLAC)

All Transfers and Mastering By Charlie Miller
charliemiller87@earthlink.net
July 22, 2008

[Cuts:]
Samson And Delilah (complete track)
Friend Of The Devil (complete track)
Drums (13:32 - 13:44)

Notes:
-- Set 2 is seamless
-- Thanks to Paul Scotton for the source discs

----------------------------------------------------
AUD (shnid=8334):

AUDMC > R > DAT > CDWAV > SHN

AKG D202E mics > Sony TC-152
taper unknown

A>D transfer by Noah Weiner (noahbw@attbi.com)  January, 2002

*Jed contains tape speed trouble then a cut at 1:51

*tail end of Werewolves taken from alternate AudMC>C>DAT>CD source

---------------------------------------------------
Thank you to Charlie Miller for the SBD transfer,
and to Noah Weiner for the AUD transfer.

Matrix by Hunter Seamons using Final Cut Pro (SHN & FLAC > AIFF > Final Cut > AIFF CD tracking via Audacity > FLAC16 via xACT)
July 29, 2010



Set I
-----
d1t01 - Mississippi Half-Step Uptown Toodeloo ->
d1t02 - Franklin's Tower
d1t03 - Me And My Uncle ->
d1t04 - Big River
d1t05 - It Must Have Been The Roses
d1t06 - Looks Like Rain
d1t07 - Tennessee Jed
d2t01 - Funiculi Funicula
d2t02 - Lazy Lightning ->
d2t03 - Supplication

Set II
-----
d2t04 - Samson And Delilah
d2t05 - Friend Of The Devil
d3t01 - Dancing In The Streets ->
d3t02 - Drums ->
d3t03 - Space ->
d3t04 - Terrapin Station ->
d3t05 - Not Fade Away ->
d3t06 - Around And Around

Encore
------
d3t07 - Werewolves Of London



Notes:

1) Phil Jaret's recording (SHNID=107950) patches the first two minutes of Tennessee Jed in the AUD due to wacked-out speed issues, as indicated in the source file.

2) First performance of Mississippi Half-Step Uptown Toodeloo into Franklin's Tower



    length     expanded size    cdr  WAVE problems  fmt   ratio  filename
     9:28.35      100277564 B   ---   --   ---xx  gd78-05-17d1t01.flac
    15:27.16      163560476 B   ---   --   ---xx  gd78-05-17d1t02.flac
     3:04.21       32507036 B   ---   --   ---xx  gd78-05-17d1t03.flac
     7:20.16       77653676 B   ---   --   ---xx  gd78-05-17d1t04.flac
     7:27.13       78881420 B   ---   --   ---xx  gd78-05-17d1t05.flac
    10:43.00      113425244 B   ---   --   ---xx  gd78-05-17d1t06.flac
    11:34.66      122576876 B   ---   --   ---xx  gd78-05-17d1t07.flac
     3:23.20       35856284 B   ---   --   ---xx  gd78-05-17d2t01.flac
     3:20.11       35305916 B   ---   --   ---xx  gd78-05-17d2t02.flac
     6:54.28       73095500 B   ---   --   ---xx  gd78-05-17d2t03.flac
     7:20.66       77771276 B   ---   --   ---xx  gd78-05-17d2t04.flac
    10:03.22      106420988 B   ---   --   ---xx  gd78-05-17d2t05.flac
    14:35.36      154434716 B   ---   --   ---xx  gd78-05-17d3t01.flac
    14:58.28      158473100 B   ---   --   ---xx  gd78-05-17d3t02.flac
     4:52.35       51591164 B   ---   --   ---xx  gd78-05-17d3t03.flac
    10:57.71      116061836 B   ---   --   ---xx  gd78-05-17d3t04.flac
    13:53.22      146992988 B   ---   --   ---xx  gd78-05-17d3t05.flac
     9:33.61      101220716 B   ---   --   ---xx  gd78-05-17d3t06.flac
     7:23.57       78279308 B   ---   --   ---xx  gd78-05-17d3t07.flac
   172:22.24     1824386084 B                            0.5386  (19 files)
1bae4650fc928cfb20f57ac594efe925 *gd78-05-17d1t01.flac
2ca7dd01c7e2dacaa22bbb4a9cf252fd *gd78-05-17d1t02.flac
13b3230504de6fbfc183b17e2e69d461 *gd78-05-17d1t03.flac
7fbf5c6458c79211b24950d0c605baed *gd78-05-17d1t04.flac
878d0a7b1f8bc6f9a994335303892e92 *gd78-05-17d1t05.flac
5739b802ab443b87167f19541744e53e *gd78-05-17d1t06.flac
262ae9037ba53e859af53d5a76b0f7c1 *gd78-05-17d1t07.flac
6c27257c638978bcea88bb3b964e5636 *gd78-05-17d2t01.flac
7966b35adbe7352c9aa4bc8c4177a51b *gd78-05-17d2t02.flac
859fee90f2edd936eb9c82ce4ac24b80 *gd78-05-17d2t03.flac
28925d99a8d7f38d8297c1d0f98101f7 *gd78-05-17d2t04.flac
8ea5ec9ef62bda9d19de0bdb2bf9b5cc *gd78-05-17d2t05.flac
939831ae88efbe0b38937742be452ac6 *gd78-05-17d3t01.flac
1d035f5a2af439e75670f6f780809993 *gd78-05-17d3t02.flac
7826d55cedebbd22c9f4d8e49a6794bb *gd78-05-17d3t03.flac
0145864db073fc676e62b25d8974c5c4 *gd78-05-17d3t04.flac
562cd09df3d7ea3761cba72901738c15 *gd78-05-17d3t05.flac
4f0c2b6d901138e5eecd15bbd7258f66 *gd78-05-17d3t06.flac
0fbeb76c020eae719edac1dce06ec91e *gd78-05-17d3t07.flac
ffp
gd78-05-17d1t01.flac:9acba134ccce803682af202ec2cc81d1
gd78-05-17d1t02.flac:431d5932601e54fdd4334a2eac91a6c0
gd78-05-17d1t03.flac:fba6e94af6297cef8016d246b16dfe52
gd78-05-17d1t04.flac:db89fb6c22506be1ea7851cf69948af6
gd78-05-17d1t05.flac:9e9d716dbb1547f4f847fecde687ef78
gd78-05-17d1t06.flac:e9871b83ad067eb029c95bb6723f9cb7
gd78-05-17d1t07.flac:e387ff03b703fdef8eb3a13f85367b85
gd78-05-17d2t01.flac:93005ceb1822cc103d17c0db33e9795d
gd78-05-17d2t02.flac:2acfcf043cf787c8e13b326acc8e09c2
gd78-05-17d2t03.flac:dd9b688af26dcbf8dbb303410044597a
gd78-05-17d2t04.flac:4ab951d695dce229183b795256c44b24
gd78-05-17d2t05.flac:37600393b1346cc48e498407da0dd8bf
gd78-05-17d3t01.flac:a7fef0fc87f1a0aaad91db7625c8a6bc
gd78-05-17d3t02.flac:345b9491c47e564b986b3d2c55246298
gd78-05-17d3t03.flac:efbcb81a76672c77aa33555fcb11df2e
gd78-05-17d3t04.flac:72120a0733499cd6ae88eb802c5f2e7f
gd78-05-17d3t05.flac:2a8c815e500ca9980dca62ccf58333d5
gd78-05-17d3t06.flac:308bc7ad866ea05060973f0d463bba18
gd78-05-17d3t07.flac:376806314a0d335b21338ce97e4788fb

Comments
etreedb.org
For administrative requests email contact@etreedb.org
This website written by Tom H Anderson and maintained by the etreedb.org community.

Cached: Tue, 17 Sep 2019 09:24:30 EDT