John Bell 05/28/94
Websters Lake, Auburn, AL
Source # 109284
Entered by Michael
Checksums ffp
Disc Counts 1 / 2
Media Size
Date Circulated
Date Added
02/28/07
08/11/2010
Download Text | Download Zip
Other Sources
Source Summary
SBD > DAT > Audigy2 (S/PDIF) > SoundForge 6.0 (48 > 44.1 w/ AAF) > shnTool > FLAC
John Bell And Friends
5-28-94
Websters Lake
Auburn, AL.

Source: SBD
Transfer: DAT > Audigy2 (S/PDIF) > SoundForge 6.0 (48 > 44.1 w/ AAF) > shnTool > FLAC Frontend
Transfer by Martin Medley (mlm1218@comcast.net)


Disc 1:

01. Space Wrangler,
02. Ribs And Whiskey,
03. Blackout Blues,
04. Crack And Whistle,
05. Dog Song,
06. JoJo & Wasted JB
07. On Your Way Down,
08. Last Train,

Disc 2:

01. Geraldine And The Honeybee,
02. City of Dreams,
03. Mercy,
04. Rock Steady > Satisfied > Rock Steady

Encore:

05. Knockin' On Heaven's Door,

End Of The Show (Missing From DAT)


[Billed as 'JB & Friends'; 'Space Wrangler' and 'Ribs and Whiskey' JB solo; 'Blackout Blues', 'Crack and Whistle' and 'Dog Song' JB, JoJo, and Todd; 'On Your Way Down', 'Last Train', 'Geraldine And The Honeybee' and 'City of Dreams' JB, Todd, JoJo, John Keane, and Carl Lindburgh; 'Mercy', 'Rock Steady > Satisfied > Rock Steady' JB, Todd, JoJo, John Keane, Carl Lindburgh, and Debra Reece; 'Knockin' On Heaven's Door' JB, Todd, JoJo, John Keane, Carl Lindburgh, and Kevn Kinney; The Grapes and Col. Bruce Hampton also appeared]


    length     expanded size   cdr  WAVE problems filename
     8:03.71       85368236    ---   --   ---xx   jb&f94-05-28d1t01.flac
     4:37.16       48900476    ---   --   ---xx   jb&f94-05-28d1t02.flac
     8:03.12       85229468    ---   --   ---xx   jb&f94-05-28d1t03.flac
     8:59.68       95239580    ---   --   ---xx   jb&f94-05-28d1t04.flac
     4:10.66       44255276    ---   --   ---xx   jb&f94-05-28d1t05.flac
     2:06.61       22369916    ---   --   ---xx   jb&f94-05-28d1t06.flac
     8:09.43       86360780    ---   --   ---xx   jb&f94-05-28d1t07.flac
     8:52.60       93985964    ---   --   ---xx   jb&f94-05-28d1t08.flac
     3:50.08       40590860    ---   --   ---xx   jb&f94-05-28d2t01.flac
     9:46.14      103403372    ---   --   ---xx   jb&f94-05-28d2t02.flac
     6:43.38       71178620    ---   --   ---xx   jb&f94-05-28d2t03.flac
     9:01.71       95599436    ---   --   ---xx   jb&f94-05-28d2t04.flac
    10:30.63      111280220    ---   --   ---xx   jb&f94-05-28d2t05.flac
    92:56.66         938.19 MB                    (totals for 13 files, 0.5300 overall compression ratio)


martin's notes from the original seeding (http://digitalpanic.org/bittorrent/showthread.php?t=4252):

"Just gotta get the recipe just right there...I hear the big ol' bonfires again and I was like these 3000 pound chickens come in here and sit on 'em..."

Following suit. This is a great show. If you are one for JBisms this is chock full of them and weird as hell as you can see from above. JB is totally wasted and makes absolutely no sense...

There is a dropout or two in Wrangler and maybe somewhere else cannot remember. This has been confirmed as being on the master DAT.

There is a dropout also at the beginning of Rock Steady. The first bit is missing but not much. These have all been confirmed as being on the master.

ffp
jb&f94-05-28d1t02.flac:b817447a44986d03c3d81ebfe0e1d0ef
jb&f94-05-28d1t03.flac:b80cc9333c09a3e649c252be101625c8
jb&f94-05-28d1t04.flac:8fdf5229786a0ad774568a3d3ac7b2cf
jb&f94-05-28d1t05.flac:7fe3e45a3f33917293251ad2d237de9b
jb&f94-05-28d1t06.flac:95b4e9112b4d244e7a4681f47a675145
jb&f94-05-28d1t07.flac:a878087eeee09414ec8b26b9960d7505
jb&f94-05-28d1t08.flac:92cfb717c95af4e10abf4f2728fbfdb3
jb&f94-05-28d2t01.flac:028b5afbdb5762ec7839f3de6d40aa1f
jb&f94-05-28d2t02.flac:9c2018960ede995662cee474a61d47fd
jb&f94-05-28d2t03.flac:8fdb647d35c9b08c485e2e78235bd050
jb&f94-05-28d2t04.flac:d4388d297f33b30077de9f82258a3ef6
jb&f94-05-28d2t05.flac:c36647e838847ae3ccdd700c0ae19852
jb&f94-05-28d1t01.flac:04fd45e39c6490db25a35c30386e6e04

Comments
Date User Comment
etreedb.org
For administrative requests email contact@etreedb.org
This website written by Tom H Anderson and maintained by the etreedb.org community.

Cached: Sat, 13 Aug 2022 02:12:00 EDT