Bob Weir, Rob Wasserman & Jay Lane 01/03/11
Revolution Live, Fort Lauderdale, FL
Source # 111499
Entered by ziko
Checksums stc2011-01-03.dpa4022
Disc Counts 1 / 2
Media Size
Date Circulated
Date Added
01/04/2011
01/05/2011
Download Text | Download Zip

Other Sources
Source Summary
Source: DPA 4022'S(DIN) > Lunatec V3 > JB3(@16/44.1)
Location: FOB, DFC approx 35 feet back @ 9 feet high
Transfer/Lineage: JB3 > Creative PlayCenter > .wav @16/44.1 >
WaveLab 6.10(minor edits/clean up/fades)> CD Wave> TLH> flac16.
SBE Free. Meta tagging with Tag&Rename.
Recorded and Transferred by Larry - FLDEADHEAD
Minor edits, tracking/encoding/tagging/seeding by Alex Ford
Scaring the Children (RD3)
January 3, 2011 - Tuesday
Revolution
Ft. Lauderdale, FL


Source: DPA 4022'S(DIN) > Lunatec V3 > JB3(@16/44.1)  

Location: FOB, DFC approx 35 feet back @ 9 feet high

Transfer/Lineage: JB3 > Creative PlayCenter > .wav @16/44.1 >
WaveLab 6.10(minor edits/clean up/fades)> CD Wave> TLH> flac16.
SBE Free. Metatagging with Tag&Rename.

Recorded and Transferred by Larry - FLDEADHEAD
Minor edits, tracking/encoding/tagging/seeding by Alex Ford


One Set

d1t01. Jam > (2:30)
d1t02. The Music Never Stopped > (9:40)
d1t03. Easy Answers (11:38)
d1t04. Desolation Row (10:12)
d1t05. Blackbird > (4:28)
d1t06. Friend Of The Devil > (4:55)
d1t07. Muleskinner Blues (7:40)
d1t08. Looks Like Rain (9:57)
d2t01. Even So > (12:11)
d2t02. October Queen > The Deep End > (6:47)
d2t03. Other One > (9:49)
d2t04. Bass/Drums > (7:43)
d2t05. Scarlet Begonias > (5:46)
d2t06. Sugar Magnolia > (6:15)
d2t07. Scarlet Begonias Jam > (4:37)
d2t08. Sunshine Daydream (5:19)
Encore:
d2t09. Not Fade Away (11:06)



Bobby Ace Weir - Guitar and Vocals
Jay Freakin Lane - Drums, back up Vocals
Rob da man Wasserman - BASS



Notes:

- This is basically the raw recording.
A re-mastered version will be on the Live Music Archive shortly.
Larry asked that a copy be made available ASAP. So here it is, enjoy...



Shntool Output:

    length     expanded size    cdr  WAVE problems  fmt   ratio  filename
     2:30.69       26622332 B   ---   --   -----    wav  1.0000  stc2011-01-03-dpa4022-d1t01.wav
     9:40.04      102321452 B   ---   --   -----    wav  1.0000  stc2011-01-03-dpa4022-d1t02.wav
    11:38.21      123176636 B   ---   --   -----    wav  1.0000  stc2011-01-03-dpa4022-d1t03.wav
    10:12.42      108055628 B   ---   --   -----    wav  1.0000  stc2011-01-03-dpa4022-d1t04.wav
     4:28.72       47444588 B   ---   --   -----    wav  1.0000  stc2011-01-03-dpa4022-d1t05.wav
     4:55.57       52172108 B   ---   --   -----    wav  1.0000  stc2011-01-03-dpa4022-d1t06.wav
     7:40.52       81266348 B   ---   --   -----    wav  1.0000  stc2011-01-03-dpa4022-d1t07.wav
     9:57.48      105423740 B   ---   --   -----    wav  1.0000  stc2011-01-03-dpa4022-d1t08.wav
    12:11.53      129073100 B   ---   --   -----    wav  1.0000  stc2011-01-03-dpa4022-d2t01.wav
     6:47.02       71799548 B   ---   --   -----    wav  1.0000  stc2011-01-03-dpa4022-d2t02.wav
     9:49.21      103949036 B   ---   --   -----    wav  1.0000  stc2011-01-03-dpa4022-d2t03.wav
     7:43.57       81807308 B   ---   --   -----    wav  1.0000  stc2011-01-03-dpa4022-d2t04.wav
     5:46.68       61194380 B   ---   --   -----    wav  1.0000  stc2011-01-03-dpa4022-d2t05.wav
     6:15.03       66157100 B   ---   --   -----    wav  1.0000  stc2011-01-03-dpa4022-d2t06.wav
     4:37.40       48956924 B   ---   --   -----    wav  1.0000  stc2011-01-03-dpa4022-d2t07.wav
     5:19.53       56396300 B   ---   --   -----    wav  1.0000  stc2011-01-03-dpa4022-d2t08.wav
    11:06.13      117513020 B   ---   --   -----    wav  1.0000  stc2011-01-03-dpa4022-d2t09.wav
   130:42.00     1383329548 B                            1.0000  (17 files)
stc2011-01-03-dpa4022-d1t01.flac:a58db5027db6a34d9395df7cdfcc1008
stc2011-01-03-dpa4022-d1t02.flac:94feb4fcde3289387b6889ed94cbc7f6
stc2011-01-03-dpa4022-d1t03.flac:aa0d4591e14f4448185f752268c44fd2
stc2011-01-03-dpa4022-d1t04.flac:868af7b6d410505e6484e5740aeb2375
stc2011-01-03-dpa4022-d1t05.flac:97b53b6451435af5bbe0b54ba643a071
stc2011-01-03-dpa4022-d1t06.flac:33d28534d897775faf080556216d1f8a
stc2011-01-03-dpa4022-d1t07.flac:1717e4637136492d98e72f3fe4993d5e
stc2011-01-03-dpa4022-d1t08.flac:e0fcd5638201743881b6e518e3e67522
stc2011-01-03-dpa4022-d2t01.flac:2d9e1233f9c079a3975820e45ffaea21
stc2011-01-03-dpa4022-d2t02.flac:2940375ad3e491c87977a7703811a8dd
stc2011-01-03-dpa4022-d2t03.flac:3e7039add33772478e00471357a3cf40
stc2011-01-03-dpa4022-d2t04.flac:cfc4fb2d77ac25d5da38b4ee4a5ba2f5
stc2011-01-03-dpa4022-d2t05.flac:5436e5debbc9b6a31578dba2275e3292
stc2011-01-03-dpa4022-d2t06.flac:d582584c9555b60258b550c0d898256c
stc2011-01-03-dpa4022-d2t07.flac:10e58257e8dc4dfe53b1dd2b15b55170
stc2011-01-03-dpa4022-d2t08.flac:4a0350ed3a95b39f7efa25031ffe1116
stc2011-01-03-dpa4022-d2t09.flac:00987d6b2a1ba13ced5c3cd408615dce

Comments
Date User Comment
etreedb.org
For administrative requests email contact@etreedb.org
This website written by Tom H Anderson and maintained by the etreedb.org community.

Cached: Tue, 1 Dec 2020 10:07:03 EST