John Bell 12/10/10
Orange Peel, Asheville, NC
Source # 112379
Entered by Michael
Checksums ffp
Disc Counts 1 / 1
Media Size
Date Circulated
Date Added
12/11/2010
03/14/2011
Download Text | Download Zip
Other Sources
Source Summary
Schoeps 4V'S(din)>Sound Devices 722
John Bell Solo Acoustic
Warren Haynes Christmas Pre-Jam
Orange Peel
Asheville, North Carolina
12/10/2010

Source: Schoeps 4V'S(din)>Sound Devices 722 (24/48)
FOB/DLFC 40' From Stage, 5 1/2' High
DSP: Sound Devices 722>Sound Forge 9.0>CD Wave>flac(16)
Recorded By: Manofz
Seeded By: Manofz

Disc I

01 Introduction By Warren Haynes
02 Papa's Home
03 Silent Night >
04 *Milk And Cookies >
05 Silent Night
06 #Christmas Katie
07 Old Joe

* JB Played Ribs And Whiskey, But Changed The Words
# With Dirty Dozen Brass Band

Shntool

    length     expanded size    cdr  WAVE problems  fmt   ratio  filename
     0:37.61        6670316 B   ---   --   ---xx   flac  0.4308  johnbell2010-12-10d01t01.flac
     6:28.06       68457356 B   ---   --   ---xx   flac  0.4240  johnbell2010-12-10d01t02.flac
     1:40.28       17705900 B   ---   --   ---xx   flac  0.3724  johnbell2010-12-10d01t03.flac
     3:41.03       38991500 B   ---   --   ---xx   flac  0.3995  johnbell2010-12-10d01t04.flac
     2:16.24       24046892 B   ---   --   ---xx   flac  0.4011  johnbell2010-12-10d01t05.flac
     8:17.46       87779036 B   ---   --   ---xx   flac  0.4508  johnbell2010-12-10d01t06.flac
     4:59.53       52868300 B   ---   --   ---xx   flac  0.4052  johnbell2010-12-10d01t07.flac
    28:00.71      296519300 B                            0.4206  (7 files)

ffp
johnbell2010-12-10d01t01.flac:85e2725797045658fbfa5c725de95c87
johnbell2010-12-10d01t02.flac:a28c19826cc02dc4c742bfe39218adad
johnbell2010-12-10d01t03.flac:53d6a3b9fb0c33c992418d1104c17b3c
johnbell2010-12-10d01t04.flac:82d7e6ac89a840980efa95100167a497
johnbell2010-12-10d01t05.flac:ebe3f0434dd23db74c1debb84d55993b
johnbell2010-12-10d01t06.flac:a722d684b938c5b02817479e85ceb3a5
johnbell2010-12-10d01t07.flac:6259de3875406bc915b08b8605351022

Comments
Date User Comment
etreedb.org
For administrative requests email contact@etreedb.org
This website written by Tom H Anderson and maintained by the etreedb.org community.

Cached: Fri, 27 Jan 2023 16:26:51 EST