David Grisman 03/23/96
Warfield Theater, San Francisco, CA
Source # 116447
Entered by Mark Goldey
Checksums ffp
Disc Counts 0 / 0
Media Size Compressed: 820.79 MB (860658620 bytes)
Uncompressed: 1.72 GB (1848724888 bytes)
Date Circulated
Date Added
10/18/11
10/18/2011
Download Text | Download Zip
Other Sources
Source Summary
Source: Up Front audience recording> DAT (microphones not specified); Conversion: DAT @ 48 k -> HT Omega 7.1 Soundcard (Optical Inputs)>WAV (48)> Downsample to 44.1 (Syntillium Cool Edit)>CD WAV (Track Split)>FLAC
David Grisman
Warfield Theater
San Francisco, CA

Source: Up Front audience recording> DAT (microphones not specified)

Conversion: DAT @ 48 k -> HT Omega 7.1 Soundcard (Optical Inputs)>WAV (48)> Downsample to 44.1 (Syntillium Cool Edit)>CD WAV (Track Split)>FLAC

Notes:

- I'm not one to make comments on audience recordings but when I first heard this, I thought this was a matrix soundboard recording not an audience tape


Set I
1 Dummy
2 EMD /  Sixteen Sixteen
3 Nature Boy
4 Grateful Dawg
5 Fanny Hill
6 Pneumonia
7 Minor Swing / Shalom Aleichim
8 Arabia

w Darol Angor, Todd Phillips
w Darol Angor, Todd Phillips, Rick Montgomery

Set II  - Herb and In the Way

09 Audience/Tune
10 Hard Hearted
11 High Lonesome Sound
12 The Great Pretender
13 Reuben's Train
14 I'm On My Way Back
15 Land of the Navajo
16 Lonesome Fiddle Blues
17 Old & in the Way
18 Bluegrass Breakdown
19 Happy Birthday David
20 Lost
21 Wild Horses
22 Pig in a Pen
23 Midnight Moonlight

E
24 Dawg's Ball
25 White Dove
26 Happy Birthday David

Comment
Grisman's Birthday Bash

    length     expanded size    cdr  WAVE problems  fmt   ratio  filename
     0:03.00         529244 B   --s   --   ---xx   flac  0.0087  David Grisman Birthday Bash 1996-03-23 d101.flac
    14:17.38      151264220 B   ---   --   ---xx   flac  0.4728  David Grisman Birthday Bash 1996-03-23 d102.flac
    11:23.07      120497708 B   ---   --   ---xx   flac  0.4220  David Grisman Birthday Bash 1996-03-23 d103.flac
     5:06.19       54023132 B   ---   --   ---xx   flac  0.4502  David Grisman Birthday Bash 1996-03-23 d104.flac
     5:57.11       63000716 B   ---   --   ---xx   flac  0.4559  David Grisman Birthday Bash 1996-03-23 d105.flac
     9:33.23      101131340 B   ---   --   ---xx   flac  0.4381  David Grisman Birthday Bash 1996-03-23 d106.flac
    15:19.30      162182204 B   ---   --   ---xx   flac  0.4111  David Grisman Birthday Bash 1996-03-23 d107.flac
    24:31.61      259627916 B   ---   --   ---xx   flac  0.4381  David Grisman Birthday Bash 1996-03-23 d108.flac
     0:58.39       10322972 B   ---   --   ---xx   flac  0.5068  David Grisman Birthday Bash 1996-03-23 d109.flac
     3:13.44       34148732 B   ---   --   ---xx   flac  0.5383  David Grisman Birthday Bash 1996-03-23 d110.flac
     4:39.19       49260332 B   ---   --   ---xx   flac  0.5446  David Grisman Birthday Bash 1996-03-23 d111.flac
     4:25.25       46804844 B   ---   --   ---xx   flac  0.5076  David Grisman Birthday Bash 1996-03-23 d112.flac
     4:30.45       47733884 B   ---   --   ---xx   flac  0.5105  David Grisman Birthday Bash 1996-03-23 d113.flac
     3:27.57       36648908 B   ---   --   ---xx   flac  0.5036  David Grisman Birthday Bash 1996-03-23 d114.flac
    10:41.39      113164172 B   ---   --   ---xx   flac  0.4754  David Grisman Birthday Bash 1996-03-23 d115.flac
     6:46.29       71686652 B   ---   --   ---xx   flac  0.4795  David Grisman Birthday Bash 1996-03-23 d116.flac
     4:46.42       50549228 B   ---   --   ---xx   flac  0.4560  David Grisman Birthday Bash 1996-03-23 d117.flac
     3:37.67       38436428 B   ---   --   ---xx   flac  0.5100  David Grisman Birthday Bash 1996-03-23 d118.flac
     0:41.29        7300652 B   ---   --   ---xx   flac  0.4972  David Grisman Birthday Bash 1996-03-23 d119.flac
     4:39.33       49293260 B   ---   --   ---xx   flac  0.4565  David Grisman Birthday Bash 1996-03-23 d120.flac
     5:01.42       53195228 B   ---   --   ---xx   flac  0.4686  David Grisman Birthday Bash 1996-03-23 d121.flac
     3:45.33       39767660 B   ---   --   ---xx   flac  0.4928  David Grisman Birthday Bash 1996-03-23 d122.flac
     8:40.23       91782140 B   ---   --   ---xx   flac  0.5039  David Grisman Birthday Bash 1996-03-23 d123.flac
    10:09.12      107455868 B   ---   --   ---xx   flac  0.4965  David Grisman Birthday Bash 1996-03-23 d125.flac
     7:01.15       74299724 B   ---   --   ---xx   flac  0.4668  David Grisman Birthday Bash 1996-03-23 d126.flac
     1:22.65       14617724 B   ---   --   ---xx   flac  0.5278  David Grisman Birthday Bash 1996-03-23 d127.flac
   174:40.22     1848724888 B                            0.4655  (26 files)

ffp
David Grisman Birthday Bash 1996-03-23 d101.flac:1d479b2f01ff096f729486321207710c
David Grisman Birthday Bash 1996-03-23 d102.flac:9de99aff7c2f802983e5bc91fa6c3051
David Grisman Birthday Bash 1996-03-23 d103.flac:3fdc1883d7a232f4b4551005abbdeb02
David Grisman Birthday Bash 1996-03-23 d104.flac:910fbd2cbbeeaf3b1f2f68702c759122
David Grisman Birthday Bash 1996-03-23 d105.flac:3b538a65e85593f4d12804ad744e4c16
David Grisman Birthday Bash 1996-03-23 d106.flac:932505d3fe38b672bb7bff28577826a0
David Grisman Birthday Bash 1996-03-23 d107.flac:6d544e77d9c6264dab67baec4ee09aae
David Grisman Birthday Bash 1996-03-23 d108.flac:181160a5b70e5ed24611611e691e4a7e
David Grisman Birthday Bash 1996-03-23 d109.flac:7fed3d99e1c8eb361ad092d4ba93b21e
David Grisman Birthday Bash 1996-03-23 d110.flac:3c089ef96a23c4116cbc93e99d8aa017
David Grisman Birthday Bash 1996-03-23 d111.flac:352330da7150b51b4640076e04a3a45e
David Grisman Birthday Bash 1996-03-23 d112.flac:c31e88fd590aab75fdd352e7284b1818
David Grisman Birthday Bash 1996-03-23 d113.flac:cf64936a0f0a55fc0d90628745352dbc
David Grisman Birthday Bash 1996-03-23 d114.flac:689364e7fdfc2088889dd23df02973ac
David Grisman Birthday Bash 1996-03-23 d115.flac:1144bcdb801ce0517f5847921e51062f
David Grisman Birthday Bash 1996-03-23 d116.flac:481ef3e5ac507b345cb4d65d0c959db7
David Grisman Birthday Bash 1996-03-23 d117.flac:c60ef6f5f22bd48a18faf0eeea3d8944
David Grisman Birthday Bash 1996-03-23 d118.flac:6933d9d495607613bf1651f84d074256
David Grisman Birthday Bash 1996-03-23 d119.flac:6fcb9633a34925ca0683dea492f8cb3f
David Grisman Birthday Bash 1996-03-23 d120.flac:a0b3451186c57066364a1e0282cfadbf
David Grisman Birthday Bash 1996-03-23 d121.flac:825ea660419823ecfd0111a70cf18a21
David Grisman Birthday Bash 1996-03-23 d122.flac:d9bc01f1411ca66f6719b530ed86c8d9
David Grisman Birthday Bash 1996-03-23 d123.flac:2553b02296b1644b262fbf9c6cb3b39a
David Grisman Birthday Bash 1996-03-23 d125.flac:34f5c14f500a0fc3b883bb0fb4be9d53
David Grisman Birthday Bash 1996-03-23 d126.flac:c0df050ee01651bb4b79884065246844
David Grisman Birthday Bash 1996-03-23 d127.flac:42849c997922b548e8de451dc1a77aba

Comments
Date User Comment
10/23/2022 mgoldey Dropout 1:02 into EMD
etreedb.org
For administrative requests email contact@etreedb.org
This website written by Tom H Anderson and maintained by the etreedb.org community.

Cached: Sun, 16 Jun 2024 13:27:14 EDT