Traffic 07/29/94
Buckeye Lake Music Center, Hebron, OH
Source # 119491
Entered by ziko
Checksums ffp , md5
Disc Counts 0 / 0
Media Size Compressed: 774.87 MB (812512996 bytes)
Date Circulated
Date Added
03/16/2012
03/16/2012
Source Summary
Source: Audience Recording > Nakamichi 300s with cp4 caps > Sony WM-D6 > MAC Lineage: MAC > Sony WM-D6 > Edirol R09 HR > 24/48 wav > Adobe Audition 1.5 > Wavelab 6 (with iZotope Ozone 5 Advanced) > iZotope RX 2 Advanced > 16/44.1 wav > CD Wave > TLH > Flac 16 Taped and transferred by John Bleich
Traffic
Buckeye Lake Music Center
Hebron, OH
07/29/1994

Source: Audience Recording > Nakamichi 300s with cp4 caps > Sony WM-D6 > MAC
Lineage: MAC > Sony WM-D6 > Edirol R09 HR > 24/48 wav > Adobe Audition 1.5 >
             Wavelab 6 (with iZotope Ozone 5 Advanced) > iZotope RX 2 Advanced > 16/44.1 wav >
             CD Wave > TLH > Flac 16

Taped and transferred by John Bleich


01   Pearly Queen
02   Medicated Goo
03   Glad >
04   Freedom Rider
05   Rock And  Roll Stew
06   Rainmaker
07   Mozambique
08   Low Spark Of High Heeled Boys
09   Empty Pages
10   Dear Mr. Fantasy
11   Gimme' Some Lovin'

Steve Winwood - guitar, keyboards, vocals
Jim Capaldi - drums, percussion, vocals
Rosko Gee - bass
Randall Bramblett - flute, saxophone
Michael McEvoy - keyboards, guitar, viola, harmonica
Walfredo Reyes Jr. - drums, percussion


Notes:

Tape flip after "Mozambique" patched with Nakamichi cm300 + cp4 > dat.  This is just the crowd in between songs.


Many thanks to John for another great capture.


edited and mastered
SIRMick
March 2012


shntool output:

    length     expanded size    cdr  WAVE problems  fmt   ratio  filename
     5:54.39       62537372 B   ---   --   ---xx   flac  0.6499  traffic1994-07-29t01.flac
     6:10.56       65399756 B   ---   --   ---xx   flac  0.6456  traffic1994-07-29t02.flac
     5:25.00       57330044 B   ---   --   ---xx   flac  0.6248  traffic1994-07-29t03.flac
     5:28.24       57915692 B   ---   --   ---xx   flac  0.6303  traffic1994-07-29t04.flac
     6:47.48       71907740 B   ---   --   ---xx   flac  0.6385  traffic1994-07-29t05.flac
     9:12.44       97476332 B   ---   --   ---xx   flac  0.6257  traffic1994-07-29t06.flac
     5:39.08       59818460 B   ---   --   ---xx   flac  0.6179  traffic1994-07-29t07.flac
    12:59.36      137500316 B   ---   --   ---xx   flac  0.5883  traffic1994-07-29t08.flac
     5:06.52       54100748 B   ---   --   ---xx   flac  0.5928  traffic1994-07-29t09.flac
     7:11.16       76066076 B   ---   --   ---xx   flac  0.6014  traffic1994-07-29t10.flac
     6:50.58       72460460 B   ---   --   ---xx   flac  0.6060  traffic1994-07-29t11.flac
    76:46.06      812512996 B                            0.6174  (11 files)

flac fingerprints:

traffic1994-07-29t01.flac:28fd1d9e7c7c16f985f8cfc980f56086
traffic1994-07-29t02.flac:43f81c9aec289cd27e6f1a0459dc60a7
traffic1994-07-29t03.flac:f896caf66f3972b2cd4f0dd2e6223dab
traffic1994-07-29t04.flac:d080ca104da27d990f99768403858db9
traffic1994-07-29t05.flac:5a265ea6f76e80c7966fc054ec34d8bd
traffic1994-07-29t06.flac:f2c497f7ee553971517accc4159633c2
traffic1994-07-29t07.flac:0c810b47dd4bfb18560c4ce143703fcf
traffic1994-07-29t08.flac:b9fad76c96ee5181c7b0a117bc4c470b
traffic1994-07-29t09.flac:d5745c5f438d62cabcfe0d51bf80196e
traffic1994-07-29t10.flac:aafbb86515adfbf80c9f953108d763ca
traffic1994-07-29t11.flac:3d899e352e18fb6dbe0f1733373e0491
ffp
traffic1994-07-29t01.flac:28fd1d9e7c7c16f985f8cfc980f56086
traffic1994-07-29t02.flac:43f81c9aec289cd27e6f1a0459dc60a7
traffic1994-07-29t03.flac:f896caf66f3972b2cd4f0dd2e6223dab
traffic1994-07-29t04.flac:d080ca104da27d990f99768403858db9
traffic1994-07-29t05.flac:5a265ea6f76e80c7966fc054ec34d8bd
traffic1994-07-29t06.flac:f2c497f7ee553971517accc4159633c2
traffic1994-07-29t07.flac:0c810b47dd4bfb18560c4ce143703fcf
traffic1994-07-29t08.flac:b9fad76c96ee5181c7b0a117bc4c470b
traffic1994-07-29t09.flac:d5745c5f438d62cabcfe0d51bf80196e
traffic1994-07-29t10.flac:aafbb86515adfbf80c9f953108d763ca
traffic1994-07-29t11.flac:3d899e352e18fb6dbe0f1733373e0491
md5
20ed447771d76b9400ab87328c9dccd8 *traffic1994-07-29t01.flac
b8cc8c050a65fc575c757d94ca7d9c22 *traffic1994-07-29t02.flac
117cd6a0172e06c842d8eb21c360be54 *traffic1994-07-29t03.flac
db769989f5766a7e1e65f5b37d9e72ef *traffic1994-07-29t04.flac
8e757ab4e6402adabf2a9946577f4f99 *traffic1994-07-29t05.flac
ec87e22e7b5d1fe16d792434ae78e68c *traffic1994-07-29t06.flac
3a848874e903b1ff9785a82ca1d011c8 *traffic1994-07-29t07.flac
e05d46d07a3a926aa7fb712bb5bfddbf *traffic1994-07-29t08.flac
494bf16c29f2df201bd14af1224ddeaa *traffic1994-07-29t09.flac
fcb2b899b990e20d3ef6f3068707974a *traffic1994-07-29t10.flac
3f66db6d4930f9105cba5fad30d6fde8 *traffic1994-07-29t11.flac

Comments
Other Sources (comments)
Source: Nakamichi cm300... (0)
Date User Comment
etreedb.org
For administrative requests email contact@etreedb.org
This website written by Tom H Anderson and maintained by the etreedb.org community.

Cached: Sun, 26 May 2024 01:43:03 EDT