Johnny Vidacovich 02/09/12
Maple Leaf, New Orleans, LA
Source # 119709
Entered by ziko
Checksums md5 , ffp
Disc Counts 2 / 2
Media Size
Date Circulated
Date Added

04/01/2012
Download Text | Download Zip

Other Sources
Source Summary
Source: AKG 522MS (Picklemic) > V3 (ms decoded) + SBD > R-44 > WAV @ 24/48
Transfer & Mix: WAV > Audacity 2.0 > WAV > xACT > FLAC @ 24/48
JV Trio
Feb. 9, 2012
NOLA
Maple Leaf
Mardi Gras Late Night

Band =  Luther Dickinson, John Vidacovich, George Porter jr.
Guests = Big Sam, Terrance Higgins, Alvin Yougblood Hart, Johnny Sansone


Source: AKG 522MS (Picklemic) > V3 (ms decoded) + SBD > R-44 > WAV @ 24/48

Transfer & Mix: WAV > Audacity 2.0 > WAV > xACT >  FLAC @ 24/48

Recorded by: Jason "Picklemic" Loomis



shntool len:
    length     expanded size    cdr  WAVE problems  fmt   ratio  filename
    15:14.704     263434736 B   cxx   --   ---xx   flac  0.6124  JVT2012-02-09s1t01.flac
     9:44.169     168240662 B   cxx   --   ---xx   flac  0.6197  JVT2012-02-09s1t02.flac
    16:32.843     285938918 B   cxx   --   ---xx   flac  0.6239  JVT2012-02-09s1t03.flac
    10:55.477     188777450 B   cxx   --   ---xx   flac  0.6194  JVT2012-02-09s1t04.flac
     9:46.775     168991382 B   cxx   --   ---xx   flac  0.6498  JVT2012-02-09s1t05.flac
    12:05.424     208922096 B   cxx   --   ---xx   flac  0.6312  JVT2012-02-09s1t06.flac
     9:14.912     159814814 B   cxx   --   ---xx   flac  0.6185  JVT2012-02-09s2t01.flac
    16:56.177     292658942 B   cxx   --   ---xx   flac  0.6279  JVT2012-02-09s2t02.flac
    18:13.730     314994182 B   cxx   --   ---xx   flac  0.6263  JVT2012-02-09s2t03.flac
    16:22.213     282877460 B   cxx   --   ---xx   flac  0.6358  JVT2012-02-09s2t04.flac
     9:13.763     159483716 B   cxx   --   ---xx   flac  0.6109  JVT2012-02-09s2t05.flac
   144:20.187    2494134358 B                            0.6254  (11 files)
md5
dc75cd105f1614db233189d47fb1a4da *JVT2012-02-09s1t01.flac
108d7674097d669d617e9e745d04ec54 *JVT2012-02-09s1t02.flac
22c1bcc0690b73405537f281f2148d57 *JVT2012-02-09s1t03.flac
9436d848d7c341519c95b1acaa017390 *JVT2012-02-09s1t04.flac
930b64fcee321c56d899dd92a51bba8d *JVT2012-02-09s1t05.flac
321358b7e07807b7c685782badf4d4b1 *JVT2012-02-09s1t06.flac
2f161acafbd691fea5eea17bffb99db6 *JVT2012-02-09s2t01.flac
8b75f21593291b454a467939e662edea *JVT2012-02-09s2t02.flac
6afc24d4076fa46b541ec834e13e7124 *JVT2012-02-09s2t03.flac
e582da424d1c8031122564fb6057d900 *JVT2012-02-09s2t04.flac
fea3f02574629a96fa375f793db26eef *JVT2012-02-09s2t05.flac
ffp
JVT2012-02-09s1t01.flac:c9f4d547a4778fac3bf9f7f1f6b9c557
JVT2012-02-09s1t02.flac:c2004232d028184d159eca2bde756ff2
JVT2012-02-09s1t03.flac:2b8c0535ca09bcb20f27d0f55ae9d5cd
JVT2012-02-09s1t04.flac:fa1169329655ece373d9171fa6fec6a1
JVT2012-02-09s1t05.flac:9a726645dd41ae4804a9b81f971f4c20
JVT2012-02-09s1t06.flac:bcfe7970eea71b9850f1a0dd806868e5
JVT2012-02-09s2t01.flac:f6b64167c3dfdb6d131605d49b503be6
JVT2012-02-09s2t02.flac:a5a0f8f13f8547b87290969c99f5b798
JVT2012-02-09s2t03.flac:d56d07ee62c56c04237ae19dde813404
JVT2012-02-09s2t04.flac:735b7ed1aee9a4fe1e2220d5c5887481
JVT2012-02-09s2t05.flac:a9b031eefefcba027e9ad37aa045c557

Comments
Date User Comment
etreedb.org
For administrative requests email contact@etreedb.org
This website written by Tom H Anderson and maintained by the etreedb.org community.

Cached: Wed, 25 Nov 2020 03:39:58 EST