Radiohead 05/01/04
Empire Polo Field - Coachella Festival, Indio, CA
Source # 119907
Entered by Mark Goldey
Checksums ffp
Disc Counts 1 / 0
Media Size Compressed: 100 MB (104857600 bytes)
Date Circulated
Date Added
04/18/2012
04/18/2012
Source Summary
FOB RoC Schoeps MK41 > KC5 > CMC6xt > Aeta PSP-3 > 1/8" > Creative Labs Nomad Jukebox 3 (16/48Khz)
Radiohead
2004-05-01
Coachella Music Festival
Indio, CA

Source:
FOB RoC Schoeps MK41 > KC5 > CMC6xt > Aeta PSP-3 > 1/8" > Creative Labs Nomad Jukebox 3 (16/48Khz)

Set 1:
Where Bluebirds Fly
There There
2 + 2 = 5
Lucky
Myxomatosis
My Iron Lung
Exit Music (For A Film)
The Gloaming
Karma Police
Sail To The Moon
I Might Be Wrong
Sit Down. Stand Up.
No Surprises
The National Anthem
Paranoid Android
Idioteque
Street Spirit (Fade Out)

Encore:
You And Whose Army?
Planet Telex
Creep
Everything In Its Right Place


Source Notes:
Ran in Hat mics spaced 7.5" pointed slightly inward; ran 50' from stage 12' RoC (Walkway with security in middle prevented me from getting any closer to middle)

Transfer:
Creative Labs Nomad Jukebox 3 > Firewire > PC

Mastering:
CD-Wave (Tracking and FLAC Encoding)
xACT (Tagging)

Mastering Notes:
- This is a 16bit 48Khz release and is not intended to be burned to CD-R
- Only tracking/splitting and tagging of the original archived FLAC file is presented here (raw and unmastered)
- the original 2004 release had the L and R channels swapped and the overall sound normalized - none of that mastering is included here so you may need to turn it up a bit

Shntool Len:
    length     expanded size    cdr  WAVE problems  fmt   ratio  filename
     0:54.107      10388524 B   cxx   --   ---xx   flac  0.3095  rh2004-05-01s01p00-1648.flac
     1:18.600      15091244 B   cxx   --   ---xx   flac  0.3504  rh2004-05-01s01p01-1648.flac
     5:16.693      60805164 B   cxx   --   ---xx   flac  0.4411  rh2004-05-01s01p02-1648.flac
     4:00.573      46190124 B   cxx   --   ---xx   flac  0.4289  rh2004-05-01s01p03-1648.flac
     4:26.680      51202604 B   cxx   --   ---xx   flac  0.4257  rh2004-05-01s01p04-1648.flac
     4:19.720      49866284 B   cxx   --   ---xx   flac  0.4642  rh2004-05-01s01p05-1648.flac
     5:03.320      58237484 B   cxx   --   ---xx   flac  0.4316  rh2004-05-01s01p06-1648.flac
     4:47.147      55132204 B   cxx   --   ---xx   flac  0.2841  rh2004-05-01s01p07-1648.flac
     3:46.827      43550764 B   cxx   --   ---xx   flac  0.4114  rh2004-05-01s01p08-1648.flac
     4:40.627      53880364 B   cxx   --   ---xx   flac  0.3986  rh2004-05-01s01p09-1648.flac
     4:08.547      47721004 B   cxx   --   ---xx   flac  0.2772  rh2004-05-01s01p10-1648.flac
     4:35.347      52866604 B   cxx   --   ---xx   flac  0.4589  rh2004-05-01s01p11-1648.flac
     4:28.987      51645484 B   cxx   --   ---xx   flac  0.3869  rh2004-05-01s01p12-1648.flac
     4:08.600      47731244 B   cxx   --   ---xx   flac  0.3461  rh2004-05-01s01p13-1648.flac
     5:18.360      61125164 B   cxx   --   ---xx   flac  0.4743  rh2004-05-01s01p14-1648.flac
     6:17.507      72481324 B   cxx   --   ---xx   flac  0.4019  rh2004-05-01s01p15-1648.flac
     4:01.640      46394924 B   cxx   --   ---xx   flac  0.4988  rh2004-05-01s01p16-1648.flac
     7:29.987      86397484 B   cxx   --   ---xx   flac  0.3390  rh2004-05-01s01p17-1648.flac
     3:54.787      45079084 B   cxx   --   ---xx   flac  0.3218  rh2004-05-01se1p01-1648.flac
     4:49.707      55623724 B   cxx   --   ---xx   flac  0.4667  rh2004-05-01se1p02-1648.flac
     5:09.707      59463724 B   cxx   --   ---xx   flac  0.3881  rh2004-05-01se1p03-1648.flac
     7:35.853      87523884 B   cxx   --   ---xx   flac  0.3666  rh2004-05-01se1p04-1648.flac
   100:33.320    1158398408 B                            0.3975  (22 files)


FFP:
rh2003-08-26s01p01-1648.flac:9ec82439659f21960fe0925c3758f9e6
rh2003-08-26s01p02-1648.flac:3e3457b97301f6c0e22ad4f395f1db00
rh2003-08-26s01p03-1648.flac:b9270dbb6468a4e9fd1b3587511cf40d
rh2003-08-26s01p04-1648.flac:8d0e5e5fd7ef4cd664eb5d7a2b96991c
rh2003-08-26s01p05-1648.flac:c074560f1be9ddacc327e1e2c473e080
rh2003-08-26s01p06-1648.flac:7d742540f1c15d8d1c10d4e7326fe6a9
rh2003-08-26s01p07-1648.flac:863f1522fbd8d905aaaac8499a0db192
rh2003-08-26s01p08-1648.flac:2c63be5100df38caea9f264547dc5df3
rh2003-08-26s01p09-1648.flac:2222f4e6e456638d85a7d3a146c5e079
rh2003-08-26s01p10-1648.flac:affa9eeb6c1dc1f353328e86898d298e
rh2003-08-26s01p11-1648.flac:e7e567c02d1b88879eb79dba6cf48aae
rh2003-08-26s01p12-1648.flac:cf8b8239d3fbca4703125d366fb33dc9
rh2003-08-26s01p13-1648.flac:a01745a5255083cbdcbc3c415e193aea
rh2003-08-26s01p14-1648.flac:920c9f542da4c53cb5ac31a7fec4ad65
rh2003-08-26s01p15-1648.flac:7cf55bf9177c798bf2e39f2e67c955fa
rh2003-08-26s01p16-1648.flac:d729e7bde83848ce89fe0f3b397c2050
rh2003-08-26s01p17-1648.flac:a0766f59c1cc3ab24731d4f67236b311
rh2003-08-26se1p01-1648.flac:cce1d18d36cbb2298db517072816bd1b
rh2003-08-26se1p02-1648.flac:0db37c964df71a7c831f49d0ba91f976
rh2003-08-26se1p03-1648.flac:f0f504fcda776b1ceb7fb9e8edd82fca
rh2003-08-26se1p04-1648.flac:022b04a2960d9fa5b54c61304134834a
rh2003-08-26se2p01-1648.flac:d6a060d95c127c575aadf666dbe90403
rh2003-08-26se2p02-1648.flac:d69a4bf0318bd29f35434c15de0dbdda
rh2003-08-26se2p03-1648.flac:526927ce3d7314a845ecc02c24e96c83
ffp
rh2004-05-01s01p00-1648.flac:c463eba76d9469bf74351da9f46f64d7
rh2004-05-01s01p01-1648.flac:c4fce523a549fb1d00afcde4ff468123
rh2004-05-01s01p02-1648.flac:d5e093ff5a8577cb4ba637365543f04f
rh2004-05-01s01p03-1648.flac:44ee4eb163cb4ce7580d8c8e6889b36d
rh2004-05-01s01p04-1648.flac:9b1806a882225d0b6c538870956d21ad
rh2004-05-01s01p05-1648.flac:f8bd359f4ca1bf664803f025b764dd4e
rh2004-05-01s01p06-1648.flac:4d7ffda7570d45082043a3a062589a3a
rh2004-05-01s01p07-1648.flac:8b1bd02399c4cacdf8d5ff00011236ca
rh2004-05-01s01p08-1648.flac:c79addf960a7b97b97a8ec5b4b113b75
rh2004-05-01s01p09-1648.flac:197155e43185d0cbfbf8d1532dccb6a1
rh2004-05-01s01p10-1648.flac:b3dd2c374be7ce05e84a8eaa68132513
rh2004-05-01s01p11-1648.flac:546a01c60868b5a5bcfcefcac6c1883e
rh2004-05-01s01p12-1648.flac:7a5f43b05f30414a69e4b8fc013a62a0
rh2004-05-01s01p13-1648.flac:b018447b4aafd9318407a2995449fbbf
rh2004-05-01s01p14-1648.flac:bfd6191e5d4368cbcb0c08f41688fc85
rh2004-05-01s01p15-1648.flac:29df5088f5f409375b246708b3216b7f
rh2004-05-01s01p16-1648.flac:7ea5c707bfff70f55f9a213d1639091e
rh2004-05-01s01p17-1648.flac:9fe93732d71ceb276ab6929de3a991db
rh2004-05-01se1p01-1648.flac:220d0ecc7378d1fb98dc3de2a97afca9
rh2004-05-01se1p02-1648.flac:0d2835fe8f70c654a508c9d89291e9cf
rh2004-05-01se1p03-1648.flac:d8d74f5752e4cc11b666afc4abd8b455
rh2004-05-01se1p04-1648.flac:62a6cc3e1842518392779f1af00bef68

Comments
Other Sources (comments)
Taper: BLG Source: DPA... (0) Taper: BLG Source: DPA... (0)
Date User Comment
etreedb.org
For administrative requests email contact@etreedb.org
This website written by Tom H Anderson and maintained by the etreedb.org community.

Cached: Mon, 20 May 2024 12:03:57 EDT