Grateful Dead 11/13/78
Music Hall, Boston, MA
Source # 119996
Entered by Matt Vernon
Checksums ffp , flac-md5
Disc Counts 0 / 0
Media Size Compressed: 0.98 GB (1047631340 bytes)
Date Circulated
Date Added
04/29/2012
04/29/2012
Source Summary
flac16; Low-generation Audience Cassette (C2?) (Maxell UDXL-II C90); Cassette (Nakamichi DR-1) > Korg MR-1000 (1-bit/5.6MHz) > Audiogate (1-bit/5.6MHz > 16-bit/44.1KHz) > CD Wave Editor > Trader's Little Helper > Flac16; Transfer & edits (patched via Soundforge 9.0) by Bob Morris, April 2012.
Grateful Dead - November 13, 1978
Boston Music Hall - Boston, Massachusetts

Low-generation Audience Cassette (C2?) (Maxell UDXL-II C90)

Cassette (Nakamichi DR-1) > Korg MR-1000 (1-bit/5.6MHz) >
Audiogate (1-bit/5.6MHz > 16-bit/44.1KHz) > CD Wave Editor >
Trader's Little Helper > Flac16

Disc One

Set 1:

01 tuning
02 The Promised Land
03 They Love Each Other
04 Mama Tried ->
05 Mexicali Blues
06 Peggy-O
07 Cassidy
08 Tennessee Jed
09 New Minglewood Blues
10 Stagger Lee
11 Jack Straw

Disc Two

Set 2:

01 tuning
02 Mississippi Halfstep ->
03 Franklin's Tower
04 Samson & Delilah
05 Friend of the Devil

Disc Three (Set 2 cont.)

01 Playing in the Band ->
02 Drums ->
03 Space
04 Black Peter ->
05 Playing in the Band ->
06 Around & Around
07 U.S. Blues (encore)

Notes:
- Lineage is possibly Dave W: Senn 441's>Nak550>cassette master>C1>C2.
- Wiley's shnid 11483 supplies Mama Tried, Mexicali Blues, and patches.
- Patches: Peggy-O (0:00-0:30); Franklin's (0:07-0:23); Drums (1:09-2:03).
- Thanks to dnick926, Dave W, Dave D, and gdvault.com.
- Transfer & edits (patched via Soundforge 9.0) by Bob Morris, April 2012.


    length     expanded size    cdr  WAVE problems  fmt   ratio  filename
     1:01.17       10800428 B   ---   --   ---xx   flac  0.6351  gd78-11-13d1t01.flac
     4:55.30       52108604 B   ---   --   ---xx   flac  0.6805  gd78-11-13d1t02.flac
     7:08.38       75588620 B   ---   --   ---xx   flac  0.6715  gd78-11-13d1t03.flac
     2:34.16       27203276 B   ---   --   ---xx   flac  0.6349  gd78-11-13d1t04.flac
     4:40.15       49427324 B   ---   --   ---xx   flac  0.6182  gd78-11-13d1t05.flac
     8:11.04       86621852 B   ---   --   ---xx   flac  0.6463  gd78-11-13d1t06.flac
     5:42.28       60394700 B   ---   --   ---xx   flac  0.6494  gd78-11-13d1t07.flac
     9:52.33      104506460 B   ---   --   ---xx   flac  0.6691  gd78-11-13d1t08.flac
     5:03.70       53613884 B   ---   --   ---xx   flac  0.6802  gd78-11-13d1t09.flac
     7:22.42       78067628 B   ---   --   ---xx   flac  0.6643  gd78-11-13d1t10.flac
     6:29.02       68624348 B   ---   --   ---xx   flac  0.6806  gd78-11-13d1t11.flac
     1:05.65       11618924 B   ---   --   ---xx   flac  0.5733  gd78-11-13d2t01.flac
     7:51.39       83176172 B   ---   --   ---xx   flac  0.6453  gd78-11-13d2t02.flac
    11:46.68      124698380 B   ---   --   ---xx   flac  0.6870  gd78-11-13d2t03.flac
     8:22.51       88672796 B   ---   --   ---xx   flac  0.6724  gd78-11-13d2t04.flac
     8:47.17       93002828 B   ---   --   ---xx   flac  0.6382  gd78-11-13d2t05.flac
    11:12.53      118665500 B   ---   --   ---xx   flac  0.6564  gd78-11-13d3t01.flac
     7:18.42       77362028 B   ---   --   ---xx   flac  0.6100  gd78-11-13d3t02.flac
     2:06.43       22327580 B   ---   --   ---xx   flac  0.6017  gd78-11-13d3t03.flac
     9:20.30       98854604 B   ---   --   ---xx   flac  0.6382  gd78-11-13d3t04.flac
     4:06.69       43556732 B   ---   --   ---xx   flac  0.6606  gd78-11-13d3t05.flac
     9:27.29      100087052 B   ---   --   ---xx   flac  0.6828  gd78-11-13d3t06.flac
     5:52.39       62184572 B   ---   --   ---xx   flac  0.6894  gd78-11-13d3t07.flac
   150:20.15     1591164292 B                            0.6584  (23 files)

No errors occured.
ffp
gd78-11-13d1t01.flac:d33ff59a623368684e17b0003c5570a5
gd78-11-13d1t02.flac:2962e25ca44eb834faf478b8f3da5b54
gd78-11-13d1t03.flac:1743932b390cc68c6499cce513de5148
gd78-11-13d1t04.flac:bbd249cce643a21590d420e133529ec9
gd78-11-13d1t05.flac:850ce9e521b4b289063455c5ee098f59
gd78-11-13d1t06.flac:27c06b33fca0eae12674398e9e94ba0c
gd78-11-13d1t07.flac:2013d9c2297988809ca299787253bc37
gd78-11-13d1t08.flac:6e88c61ae950d970bbab6d4bb2f2b73c
gd78-11-13d1t09.flac:745703b47c5a885bd62e971907dca108
gd78-11-13d1t10.flac:7cd842d6818b1d425422c15f9bc07a35
gd78-11-13d1t11.flac:fdeebb3a6ef77e3e58dcb79d7581e253
gd78-11-13d2t01.flac:cf7efbec1133d1da3705b6305f7d2947
gd78-11-13d2t02.flac:a104930dd8dd716aaf96420341cd3916
gd78-11-13d2t03.flac:13950d5ebe3a90232cb348818cc06a56
gd78-11-13d2t04.flac:b6abe7bc8c2d4687e39eddb982297ab9
gd78-11-13d2t05.flac:b60a2dd6e18e15b8ec3f56be5754717e
gd78-11-13d3t01.flac:962d32d7c1d572dd3be267400a596458
gd78-11-13d3t02.flac:d2827ab453d6d5cff6eef5316a4d6346
gd78-11-13d3t03.flac:d039dd6efa56976e361eb0fbb6f05055
gd78-11-13d3t04.flac:82824f2ce82621d19b6fa967fba34129
gd78-11-13d3t05.flac:f00442f27427cf767f722a1ffe726d92
gd78-11-13d3t06.flac:211a1982c4f86e0877cca1dcb8f14255
gd78-11-13d3t07.flac:ecb656de8f072fa23d06e5f06e31133a
aee2d5a14a16584dbbd962acb7124962 *gd78-11-13d1t01.flac
e1e63d509b594f29b0b8476234488860 *gd78-11-13d1t02.flac
a6177451a1c53ecafc82abf090a1cd20 *gd78-11-13d1t03.flac
e5783efa60e8004963a8bd6dac9d48c8 *gd78-11-13d1t04.flac
8d19493264b8e92154ce47123e7c2ee2 *gd78-11-13d1t05.flac
59369e7213f7c6b43d4afd48fee028a3 *gd78-11-13d1t06.flac
078c88f4c130fd17c0b1b8bca08d66b3 *gd78-11-13d1t07.flac
48f582b12fe3aceb11f8d11253e7e3bb *gd78-11-13d1t08.flac
6e7baf174e06501453951213570eafa2 *gd78-11-13d1t09.flac
0c9171d67a378e7631c3352b1afb3cd0 *gd78-11-13d1t10.flac
6cd38ab97bad3729c5742cc38285c433 *gd78-11-13d1t11.flac
f4b89e73317fa14019ff3ccdac457ae4 *gd78-11-13d2t01.flac
38c9b5d6cff72c4503ede846d649e9c4 *gd78-11-13d2t02.flac
e95c520ca3f60cbef82d02abd24a6bf8 *gd78-11-13d2t03.flac
fc6e9683a1b5bc6c9892cbe6954a8c03 *gd78-11-13d2t04.flac
94eef4c0416585d4e3bbc8995c43437e *gd78-11-13d2t05.flac
7dd033826714ff1321532737ed2c61c9 *gd78-11-13d3t01.flac
5aa791a9315744568a97aed8af0f04ab *gd78-11-13d3t02.flac
baa460879a023974cf866c68a8840544 *gd78-11-13d3t03.flac
2389a2ec2435f313762caa1e474e9785 *gd78-11-13d3t04.flac
88018ac746ab54e2ebf67d41f1d96b97 *gd78-11-13d3t05.flac
20e58fe0114176179d72f58747cfc5d4 *gd78-11-13d3t06.flac
cece3b1df4eb21d800c4b8223ae6f4fd *gd78-11-13d3t07.flac

Comments
Other Sources (comments)
AUD>MC>DAT>CDR; Seeded to... (0)
Date User Comment
etreedb.org
For administrative requests email contact@etreedb.org
This website written by Tom H Anderson and maintained by the etreedb.org community.

Cached: Tue, 17 Sep 2019 13:21:56 EDT