Grateful Dead 12/19/78
Memorial Coliseum, Mississippi State Fairgrounds, Jackson, MS
Source Summary
flac16; Recording Info: (FOB) Sony 54P -> Cassette Master (Sony TC-158SD); Transfer Info: Cassette Master (Nakamichi DR-1) -> Sound Devices 744T (24bit/96k) -> Adobe Audition v3.0 -> Samplitude Professional v11.2.1 -> FLAC/16; All Transfers and Mastering By Charlie Miller; Recorded by Bob Wagner
Grateful Dead - December 19, 1978
Mississippi State Fairgrounds
Memorial Coliseum - Jackson, MS

Recording Info:
(FOB) Sony 54P -> Cassette Master (Sony TC-158SD)

Transfer Info:
Cassette Master (Nakamichi DR-1) -> Sound Devices 744T (24bit/96k) ->
Adobe Audition v3.0 -> Samplitude Professional v11.2.1 -> FLAC/16
(3 Discs Audio / 1 DVD FLAC)

All Transfers and Mastering By Charlie Miller
charliemiller87@earthlink.net
September 6, 2012

Notes:
-- All disc changes are seamless
-- The beginning of Mississippi Half-Step is missing
-- Thanks to Bob Wagner for lending me his masters
-- Thanks to Joe B. Jones for his help with the pitch correction

Set 1:
d1t01 - Mississippi Half-Step Uptown Toodeloo ->
d1t02 - Franklin's Tower
d1t03 - New Minglewood Blues
d1t04 - They Love Each Other
d1t05 - Me And My Uncle ->
d1t06 - Big River
d1t07 - Loser
d1t08 - El Paso
d1t09 - Row Jimmy
d2t01 - Lazy Lightnin' ->
d2t02 - Supplication

Set 2:
d2t03 - Scarlet Begonias ->
d2t04 - Fire On The Mountain
d2t05 - Promised Land
d2t06 - Stagger Lee
d2t07 - Truckin' ->
d2t08 - Drums ->
d3t01 - Space ->
d3t02 - The Other One ->
d3t03 - Stella Blue ->
d3t04 - Not Fade Away ->
d3t05 - Around And Around

Encore:
d3t06 - Casey Jones


SHNTOOL OUTPUT:
    length     expanded size    cdr  WAVE problems  fmt   ratio  filename
     5:48.67       61544828 B   ---   --   ---xx   flac  0.6831  gd78-12-19d1t01.flac
    12:56.69      137048732 B   ---   --   ---xx   flac  0.6669  gd78-12-19d1t02.flac
     6:25.60       68055164 B   ---   --   ---xx   flac  0.6637  gd78-12-19d1t03.flac
     8:15.68       87477980 B   ---   --   ---xx   flac  0.6510  gd78-12-19d1t04.flac
     2:58.54       31526252 B   ---   --   ---xx   flac  0.6696  gd78-12-19d1t05.flac
     6:21.54       67335452 B   ---   --   ---xx   flac  0.6535  gd78-12-19d1t06.flac
     8:43.23       92311340 B   ---   --   ---xx   flac  0.6426  gd78-12-19d1t07.flac
     5:48.20       61434284 B   ---   --   ---xx   flac  0.6379  gd78-12-19d1t08.flac
    13:55.63      147442220 B   ---   --   ---xx   flac  0.6410  gd78-12-19d1t09.flac
     3:38.72       38624588 B   ---   --   ---xx   flac  0.6892  gd78-12-19d2t01.flac
     6:02.57       63990908 B   ---   --   ---xx   flac  0.6926  gd78-12-19d2t02.flac
    11:29.60      121680764 B   ---   --   ---xx   flac  0.6732  gd78-12-19d2t03.flac
    12:58.24      137295692 B   ---   --   ---xx   flac  0.6652  gd78-12-19d2t04.flac
     6:41.32       70811708 B   ---   --   ---xx   flac  0.6695  gd78-12-19d2t05.flac
     8:53.66       94176476 B   ---   --   ---xx   flac  0.6410  gd78-12-19d2t06.flac
    14:29.38      153381020 B   ---   --   ---xx   flac  0.6871  gd78-12-19d2t07.flac
     8:47.27       93026348 B   ---   --   ---xx   flac  0.6235  gd78-12-19d2t08.flac
     1:04.45       11395484 B   ---   --   ---xx   flac  0.5980  gd78-12-19d3t01.flac
    13:24.35      141907964 B   ---   --   ---xx   flac  0.6470  gd78-12-19d3t02.flac
    11:03.72      117122588 B   ---   --   ---xx   flac  0.6152  gd78-12-19d3t03.flac
    11:34.16      122459276 B   ---   --   ---xx   flac  0.6685  gd78-12-19d3t04.flac
     9:53.29      104673452 B   ---   --   ---xx   flac  0.6551  gd78-12-19d3t05.flac
     6:20.64       67182572 B   ---   --   ---xx   flac  0.6733  gd78-12-19d3t06.flac
   197:38.65     2091905092 B                            0.6575  (23 files)


ffp
gd78-12-19d1t01.flac:4ba59b4aa7fdba6fd74490d8be55d8b9
gd78-12-19d1t02.flac:dd0149fd7cd8c4940cb90bef7d27fb74
gd78-12-19d1t03.flac:e12d8d96a3eddacc28529b031cbdcd85
gd78-12-19d1t04.flac:a33370152c15e0eb5e9c6bda4ea41df8
gd78-12-19d1t05.flac:a5d989e4b5348d8d5fa8871addd2dea6
gd78-12-19d1t06.flac:ddacce76587d2395ff084bb6af5d9b56
gd78-12-19d1t07.flac:7ec12a60b7ecefcee234203c4cf08574
gd78-12-19d1t08.flac:1ba0054a2733da85243009f81e88a2c1
gd78-12-19d1t09.flac:d7278eb28a75e8ee64c82b89729c48b2
gd78-12-19d2t01.flac:871e9247138a2ae6263fead1d7dcca94
gd78-12-19d2t02.flac:70478ed39a923c3a6f5c6ba86783e04f
gd78-12-19d2t03.flac:a9f61da7a55b9a79203639a07157f0e6
gd78-12-19d2t04.flac:4d64903b690fd8193114777ddce42807
gd78-12-19d2t05.flac:650cea1721d44830948801e0cd5d7063
gd78-12-19d2t06.flac:97dd524de5d6d347a1c6d958e6a8d83d
gd78-12-19d2t07.flac:14453d1e42b1d11ddf6374febda16d7c
gd78-12-19d2t08.flac:0825078f4a4724223c61190d061ab3d4
gd78-12-19d3t01.flac:88e42be40d98cfc625147f440255760a
gd78-12-19d3t02.flac:4c728b2f94c3a7accb10cf2aa4069add
gd78-12-19d3t03.flac:d0604231195097307e675fcf0d9911d5
gd78-12-19d3t04.flac:ab92d0f8021b7459ec5d5f5ea1107889
gd78-12-19d3t05.flac:1d1b2b415d9f50291d2d56e37cd66cba
gd78-12-19d3t06.flac:ab957f2ed2efe0c575ed4fc8ebca7352
48c6c9a412770f6d0b35a6441190d97b *gd78-12-19d1t01.flac
408fac5acf06ee34ec096570d07a3e09 *gd78-12-19d1t02.flac
5ef0b9b4084a96f0f5fef9aecab2ff2b *gd78-12-19d1t03.flac
a7bbe926f9f40395eb406291b5f9e8bf *gd78-12-19d1t04.flac
ba3dfd5b9897f6eac6cb1e977f230fbe *gd78-12-19d1t05.flac
3877e853fec3a3539576b80dfe9d4b5b *gd78-12-19d1t06.flac
ca7b80323fb4613f7619d4f0d7218064 *gd78-12-19d1t07.flac
1399494217506b21a3f1f5cf8a6c8a4c *gd78-12-19d1t08.flac
7872d1016adc4199c5e55ef83e3d0c09 *gd78-12-19d1t09.flac
32df4e0ad0de696e2295282b3257a39a *gd78-12-19d2t01.flac
a5d0199e55a9a51614778a4797d5e758 *gd78-12-19d2t02.flac
8cbe5e7453f274b34323eee001d1b886 *gd78-12-19d2t03.flac
cbfea98db865b67bc8011552f9a2d74f *gd78-12-19d2t04.flac
10b6e8533812593af5f5404b07138abe *gd78-12-19d2t05.flac
759ce9738c9378951328b1c720be152c *gd78-12-19d2t06.flac
b424cf38034cf1f22707c0e30aa5c60e *gd78-12-19d2t07.flac
a92b9160e946b39ac3e8a105b16b0a62 *gd78-12-19d2t08.flac
a0775395ff83bbf1fe3ca1922fbe45b4 *gd78-12-19d3t01.flac
91c2795565ea33bca8c5edfb78b6e48a *gd78-12-19d3t02.flac
161148fb9f384210551175ae27558c6c *gd78-12-19d3t03.flac
8ef6a8eefc92676090ff01dea3ddb4c2 *gd78-12-19d3t04.flac
06a96d3eab42689350f113e69bd8aff3 *gd78-12-19d3t05.flac
c83b0022534fe85690d29ff04d3f5843 *gd78-12-19d3t06.flac

Comments
etreedb.org
For administrative requests email contact@etreedb.org
This website written by Tom H Anderson and maintained by the etreedb.org community.

Cached: Sat, 19 Oct 2019 16:07:55 EDT