Grateful Dead 12/30/78
Pauley Pavilion, UCLA, Los Angeles, CA
Source Summary
flac16; Recording Info: SBD -> Master Reel -> Reel -> Cassette -> Dat; Transfer Info: Dat (Tascam DA-20) -> Tascam SS-R05 -> Adobe Audition v3.0 -> Samplitude Professional v11.2.1 -> FLAC; All Transfers and Mastering By Charlie Miller
Grateful Dead - December 30, 1978
Pauley Pavilion - Los Angeles, CA

Recording Info:
SBD -> Master Reel -> Reel -> Cassette -> Dat

Transfer Info:
Dat (Tascam DA-20) -> Tascam SS-R05 -> Adobe Audition v3.0 ->
Samplitude Professional v11.2.1 -> FLAC
(3 Discs Audio / 1 Disc FLAC)

All Transfers and Mastering By Charlie Miller
charliemiller87@earthlink.net
December 13, 2012

Patch Info:
Neumann KM84 -> Master Reel -> CD -> SHN (shnid=19417) supplies:
Stagger Lee (4:11 - 5:05)
Playing In The Band (1:41 - 2:40)
Saint Stephen (6:15 - end of track)
Not Fade Away (complete track)
Goin' Down The Road Feeling Bad (complete track)
Around And Around  (complete track)
One More Saturday Night  (complete track)

Notes:
-- All disc changes are seamless
-- Ollin Arrageed With Hamza el-Din
-- Around And Around with Lee Oskar
-- I can not confirm the accuracy of the SBD lineage
-- Thanks to Joe B. Jones for his help with the pitch correction

Set 1:
d1t01 - Jack Straw
d1t02 - They Love Each Other
d1t03 - Mama Tried ->
d1t04 - Mexicali Blues
d1t05 - Loser
d1t06 - Looks Like Rain
d1t07 - Stagger Lee
d1t08 - Passenger
d1t09 - Tennessee Jed
d1t10 - Minglewood Blues
d2t01 - Sugaree
d2t02 - Promised Land

Set 2:
d2t03 - I Need A Miracle ->
d2t04 - Bertha ->
d2t05 - Good Lovin'
d2t06 - Scarlet Begonias ->
d2t07 - Fire On The Mountain
d2t08 - Playing In The Band ->
d2t09 - Shakedown Street ->
d3t01 - Drums ->
d3t02 - Ollin Arrageed ->
d3t03 - Space ->
d3t04 - Saint Stephen ->
d3t05 - Not Fade Away ->
d3t06 - Goin' Down The Road Feeling Bad ->
d3t07 - Around And Around

Encore:
d3t08 - One More Saturday Night


SHNTOOL OUTPUT:
    length     expanded size    cdr  WAVE problems  fmt   ratio  filename
     6:38.44       70310732 B   ---   --   ---xx   flac  0.6409  gd78-12-30d1t01.flac
     8:29.23       89841740 B   ---   --   ---xx   flac  0.6231  gd78-12-30d1t02.flac
     2:27.69       26093132 B   ---   --   ---xx   flac  0.6661  gd78-12-30d1t03.flac
     5:41.05       60164204 B   ---   --   ---xx   flac  0.6292  gd78-12-30d1t04.flac
     8:37.09       91220012 B   ---   --   ---xx   flac  0.6435  gd78-12-30d1t05.flac
    10:19.37      109278668 B   ---   --   ---xx   flac  0.6400  gd78-12-30d1t06.flac
     7:35.65       80414924 B   ---   --   ---xx   flac  0.6361  gd78-12-30d1t07.flac
     7:37.14       80647772 B   ---   --   ---xx   flac  0.6451  gd78-12-30d1t08.flac
     8:59.73       95251340 B   ---   --   ---xx   flac  0.6665  gd78-12-30d1t09.flac
     6:43.50       71206844 B   ---   --   ---xx   flac  0.6491  gd78-12-30d1t10.flac
    12:29.00      132123644 B   ---   --   ---xx   flac  0.6419  gd78-12-30d2t01.flac
     4:44.35       50179964 B   ---   --   ---xx   flac  0.6834  gd78-12-30d2t02.flac
     4:34.39       48425372 B   ---   --   ---xx   flac  0.6457  gd78-12-30d2t03.flac
     6:35.03       69685100 B   ---   --   ---xx   flac  0.6491  gd78-12-30d2t04.flac
     7:38.05       80803004 B   ---   --   ---xx   flac  0.6452  gd78-12-30d2t05.flac
     8:53.60       94162364 B   ---   --   ---xx   flac  0.6405  gd78-12-30d2t06.flac
    12:58.59      137378012 B   ---   --   ---xx   flac  0.5921  gd78-12-30d2t07.flac
     7:28.39       79118972 B   ---   --   ---xx   flac  0.5808  gd78-12-30d2t08.flac
     8:53.01       94023596 B   ---   --   ---xx   flac  0.5760  gd78-12-30d2t09.flac
    10:47.47      114241388 B   ---   --   ---xx   flac  0.5617  gd78-12-30d3t01.flac
    13:57.58      147783260 B   ---   --   ---xx   flac  0.5439  gd78-12-30d3t02.flac
     1:58.50       20932844 B   ---   --   ---xx   flac  0.5734  gd78-12-30d3t03.flac
     7:43.39       81764972 B   ---   --   ---xx   flac  0.5821  gd78-12-30d3t04.flac
     7:15.32       76809308 B   ---   --   ---xx   flac  0.5940  gd78-12-30d3t05.flac
     6:26.26       68151596 B   ---   --   ---xx   flac  0.5965  gd78-12-30d3t06.flac
    10:19.58      109328060 B   ---   --   ---xx   flac  0.5924  gd78-12-30d3t07.flac
     4:41.12       49596668 B   ---   --   ---xx   flac  0.6398  gd78-12-30d3t08.flac
   210:35.52     2228937492 B                            0.6165  (27 files)


ffp
gd78-12-30d1t01.flac:29b11e3f3d5ecd113e99274f5091ae76
gd78-12-30d1t02.flac:22deff97915a4300a8ca49719c165c66
gd78-12-30d1t03.flac:82a7bf4ccf27a5da857a153eaae57be0
gd78-12-30d1t04.flac:9aec086741361187b6217f5b35768093
gd78-12-30d1t05.flac:528445d2cf62a80b270a8808ab8febc3
gd78-12-30d1t06.flac:6a1a22829b09f2a722371ad7c9f85a42
gd78-12-30d1t07.flac:d91c14e96d6dace108bcdd4b6baedad9
gd78-12-30d1t08.flac:2e196abd288babb3426c6f0891fac72b
gd78-12-30d1t09.flac:fdb65085b4477dada28dc7b732c41600
gd78-12-30d1t10.flac:61d0792a55608364bfc95e110e1a9464
gd78-12-30d2t01.flac:692621d88ef6b3ef78de92e2c2b63451
gd78-12-30d2t02.flac:f828514299fd13adc9b39d48a0386322
gd78-12-30d2t03.flac:f1be47d5c36905db7c7362ccace8469b
gd78-12-30d2t04.flac:0ce0a92f59bb59032b42c1cfdc95e996
gd78-12-30d2t05.flac:49b1c88ec1e547f522e15ac8603184ec
gd78-12-30d2t06.flac:e79309701a045d159027daa9f00abb3c
gd78-12-30d2t07.flac:a7e73e2d9049a2c7cbba6a42db9222eb
gd78-12-30d2t08.flac:e600906ab6323ab61c58a31b2fe1b13a
gd78-12-30d2t09.flac:87688abdb8ddc5246b93fac077afd1c2
gd78-12-30d3t01.flac:925df1fde5cf6aebc4639ba40fb6dc1a
gd78-12-30d3t02.flac:b025c494a1c84bdb5f33e1a847578057
gd78-12-30d3t03.flac:e76b65af089dff3b86b2ea49a33f4e3d
gd78-12-30d3t04.flac:6845988c4e3958a237e65cf8e3af67fd
gd78-12-30d3t05.flac:d102d1efd92cb8899d4ea2d4aeb4f24e
gd78-12-30d3t06.flac:43c8999afff19def86529327883a76b1
gd78-12-30d3t07.flac:bdc4bfcf6184ec7bf8bf2c94143da9ac
gd78-12-30d3t08.flac:049c5645881caa8b8beb1eddccf4e359
ab9e60a2bbb33853542cb3baecf999e7 *gd78-12-30d1t01.flac
7f8ea1b0557e931ef72978b54c61faa0 *gd78-12-30d1t02.flac
15e641b731c895eb568b05fc1a098bdf *gd78-12-30d1t03.flac
92f4f990cea864c42e95602bf416ab4a *gd78-12-30d1t04.flac
0cadb987f6f574ac7146db148ba8354f *gd78-12-30d1t05.flac
46f929a0f0a5be7553c159619c1696da *gd78-12-30d1t06.flac
89ca94d6bde1ad0c11b5d8de89385fc8 *gd78-12-30d1t07.flac
ff33a590f9b403d1aaaaa0f017d99694 *gd78-12-30d1t08.flac
563c4e6de5cbd1048006e6dc412c3074 *gd78-12-30d1t09.flac
f1ed6937c9cc7a76dae9557f06b0e959 *gd78-12-30d1t10.flac
69c7dc78623662821f066004d1dce7a7 *gd78-12-30d2t01.flac
97bdf85850bd0aab179dd16a2398630c *gd78-12-30d2t02.flac
2dc424d6fddcfecd515757da9aa0269b *gd78-12-30d2t03.flac
7398409d3d68333d8a7c20e6e896349a *gd78-12-30d2t04.flac
2013d251a24b78a00e1b50e0f4eff19a *gd78-12-30d2t05.flac
7cc0b04533a20b7e3eac39db3d4fab94 *gd78-12-30d2t06.flac
8ad3fc99be820b866e2eb0705a6d124e *gd78-12-30d2t07.flac
ad647edc5d3d73b3a447c688a84b268c *gd78-12-30d2t08.flac
5679555da615c7259a7c0c702ade595b *gd78-12-30d2t09.flac
a592072bd27d14d54e78578e419a50c9 *gd78-12-30d3t01.flac
93b95b6eb336ed095c788397dc8fed54 *gd78-12-30d3t02.flac
f64e04d3b65693fd4760ec2908839554 *gd78-12-30d3t03.flac
85a441b3ea2ac207f703e87ad6c9151a *gd78-12-30d3t04.flac
daf0bb5a82f1829625b14e2334b0cca1 *gd78-12-30d3t05.flac
6629f282e5b1fa793c4a5bc9fe638cc3 *gd78-12-30d3t06.flac
768aedbf74fb7ae83fef22b69f87f4b6 *gd78-12-30d3t07.flac
0c7e7a010eb2142fa539056fb6ab9e5b *gd78-12-30d3t08.flac

Comments
etreedb.org
For administrative requests email contact@etreedb.org
This website written by Tom H Anderson and maintained by the etreedb.org community.

Cached: Tue, 17 Sep 2019 09:24:19 EDT