Phish 07/13/99
Tweeter Center, Mansfield, MA
Source Summary
flac16; Microtech Gefell M210 -> Apogee AD1000 -> Dat (44.1k); Tascam DA-20 -> Tascam SS-R05 -> Samplitude Professional v11.2.1 -> FLAC; Transferred by Charlie Miller
Phish - July 13, 1999
Tweeter Center - Mansfield, MA

Recording Info:
Microtech Gefell M210 -> Apogee AD1000 -> Dat (44.1k)

Transfer Info:
Dat (Tascam DA-20) -> Tascam SS-R05 -> Samplitude Professional v11.2.1 -> FLAC
(2 Discs Audio / 1 DVD FLAC)

All Transfers and Mastering By Charlie Miller
charliemiller87@earthlink.net
January 26, 2013

Notes:
-- Possum and Tuesday's Gone with Scott Murawski on guitar

Set 1:
d1t01 - NICU
d1t02 - The Curtain ->
d1t03 - Halley's Comet ->
d1t04 - Roses Are Free ->
d1t05 - NO2
d1t06 - Lawn Boy
d1t07 - Reba ->
d1t08 - Carini ->
d1t09 - Funky Bitch

Set 2:
d2t01 - Wolfman's Brother ->
d2t02 - Piper
d2t03 - Bug ->
d2t04 - Mountains In The Mist
d2t05 - Run Like An Antelope ->
d2t06 - Possum

Encore:
d2t07 - Tuesday's Gone


SHNTOOL OUTPUT:
    length     expanded size    cdr  WAVE problems  fmt   ratio  filename
     6:32.57       69282908 B   ---   --   ---xx   flac  0.5515  phish1999-07-13d1t01.flac
     6:30.05       68807804 B   ---   --   ---xx   flac  0.5573  phish1999-07-13d1t02.flac
    14:34.03      154180700 B   ---   --   ---xx   flac  0.5370  phish1999-07-13d1t03.flac
     6:42.04       70922252 B   ---   --   ---xx   flac  0.5597  phish1999-07-13d1t04.flac
     5:57.02       62979548 B   ---   --   ---xx   flac  0.4889  phish1999-07-13d1t05.flac
     3:21.38       35545820 B   ---   --   ---xx   flac  0.4782  phish1999-07-13d1t06.flac
    15:23.68      162977180 B   ---   --   ---xx   flac  0.5149  phish1999-07-13d1t07.flac
     7:25.15       78533324 B   ---   --   ---xx   flac  0.5784  phish1999-07-13d1t08.flac
     8:00.47       84782588 B   ---   --   ---xx   flac  0.5565  phish1999-07-13d1t09.flac
    21:58.37      232582268 B   ---   --   ---xx   flac  0.5124  phish1999-07-13d2t01.flac
     8:21.74       88550492 B   ---   --   ---xx   flac  0.5625  phish1999-07-13d2t02.flac
     9:58.61      105630716 B   ---   --   ---xx   flac  0.5448  phish1999-07-13d2t03.flac
     6:31.39       69064172 B   ---   --   ---xx   flac  0.5061  phish1999-07-13d2t04.flac
    11:44.10      124209164 B   ---   --   ---xx   flac  0.5454  phish1999-07-13d2t05.flac
     9:14.54       97852652 B   ---   --   ---xx   flac  0.5538  phish1999-07-13d2t06.flac
     9:16.58       98214860 B   ---   --   ---xx   flac  0.5418  phish1999-07-13d2t07.flac
   151:33.47     1604116448 B                            0.5361  (16 files)

FFP
phish1999-07-13d1t01.flac:c09cacde5a572c2584860c617fa92180
phish1999-07-13d1t02.flac:a7edb64c9c0306405cd995f2409b1221
phish1999-07-13d1t03.flac:88d6b8f6b624aa844f1f9a5ecbcc6675
phish1999-07-13d1t04.flac:55a370544f7f577c0e3ba968e3770dd1
phish1999-07-13d1t05.flac:98281cbc9aeb16b207e244920a66e609
phish1999-07-13d1t06.flac:b77f67583519345214c5627967c4e104
phish1999-07-13d1t07.flac:7f93b7e6196947699726b515ab9b2702
phish1999-07-13d1t08.flac:ea6529db789c84931dcd6d1d1161fd3a
phish1999-07-13d1t09.flac:e3a94b2d422e6f30dcd67de24af68776
phish1999-07-13d2t01.flac:d7c76ba6363fe82b307065ec7d619957
phish1999-07-13d2t02.flac:045b193c8efee5ce049508ff68ceae2a
phish1999-07-13d2t03.flac:697b144c25746558073c6bf879fe7aa3
phish1999-07-13d2t04.flac:5abf6b83d6e048bd7adfa0d170a51f0d
phish1999-07-13d2t05.flac:b9400e0ca7bf6c95942d445b215bb28c
phish1999-07-13d2t06.flac:39133ffc64c5d6b6c4827cbdfb4bb522
phish1999-07-13d2t07.flac:b3065a50a0ede2d31f8e2950ee59ee33
ca2fb852e0d984354625e41ebc8cc747 *phish1999-07-13d1t01.flac
0f9d4accb1f3bc07981b6e02f5499e73 *phish1999-07-13d1t02.flac
7310ecf0d764a4037ac354a9760278a5 *phish1999-07-13d1t03.flac
71450d6f95bfb6849d5219cf995a3005 *phish1999-07-13d1t04.flac
e0033048fc0054be16aa5979fae2328d *phish1999-07-13d1t05.flac
0f977fd93d3b8ddd7fd9127e089a1156 *phish1999-07-13d1t06.flac
41f591c82ddeb44bed26c4616c06c0c1 *phish1999-07-13d1t07.flac
4a56c5c8354874fdc98fffc4f7ead18c *phish1999-07-13d1t08.flac
89794481b3bc089bdaae9214378d2236 *phish1999-07-13d1t09.flac
810c6d3324415bf8645a079c51a9f37c *phish1999-07-13d2t01.flac
223fb5cc3f06ecd4fb014fa1082bb6d8 *phish1999-07-13d2t02.flac
7314c9caf8ba4949512a668e53b7cddd *phish1999-07-13d2t03.flac
8ceb9f706aa5eb465e5a55987df8d34d *phish1999-07-13d2t04.flac
54bc1ce4af747c45f79b1a8ec321c845 *phish1999-07-13d2t05.flac
c3e9cb8dbab1c85242f76e86110aad58 *phish1999-07-13d2t06.flac
bf475777df8788c38ab1bfc0944b0911 *phish1999-07-13d2t07.flac

Comments
etreedb.org
For administrative requests email contact@etreedb.org
This website written by Tom H Anderson and maintained by the etreedb.org community.

Cached: Tue, 20 Oct 2020 21:12:29 EDT