Grateful Dead 12/12/78
Jai-Alai Fronton, Miami, FL
Source # 123741
Entered by Matt Vernon
Checksums ffp , flac-md5
Disc Counts 0 / 0
Media Size Compressed: 844.91 MB (885951660 bytes)
Date Circulated
Date Added
02/07/2013
02/08/2013
Source Summary
flac16; Recording Info: SBD -> Master Reel -> Cassette -> Dat; Transfer Info: Dat (Tascam DA-20) -> Tascam SS-R05 -> Adobe Audition v3.0 -> Samplitude Professional v11.2.1 -> FLAC; All Transfers and Mastering By Charlie Miller
Grateful Dead - December 12, 1978
Jai-Alai Fronton - Miami, FL

Recording Info:
SBD -> Master Reel -> Cassette -> Dat

Transfer Info:
Dat (Tascam DA-20) -> Tascam SS-R05 -> Adobe Audition v3.0 ->
Samplitude Professional v11.2.1 -> FLAC
(2 Discs Audio / 1 DVD FLAC)

All Transfers and Mastering By Charlie Miller
charliemiller87@earthlink.net
February 7, 2013

Patch Info:
Sony 54P -> Cassette Master -> SHN (shnid=18511) supplies:
Looks Like Rain (0:00 - 0:11)
Stagger Lee (0:00 - 0:05)
Bertha (0:00 - 0:23)
Goin' Down The Road Feeling Bad (0:14 - 0:31)

Notes:
-- Encore on end of Set 1 to fit show onto 2 discs
-- Set 2 and Encore are seamlss
-- I can not confirm the lineage of the Dat due to sound changes
-- Patch source recorded by Bob Wagner and transferred by David Minches
-- Thanks to Joe B. Jones for his help with the pitch correction

Set 1:
d1t01 - Mississippi Half-Step Uptown Toodeloo ->
d1t02 - Franklin's Tower
d1t03 - Looks Like Rain
d1t04 - Peggy-O
d1t05 - Me And My Uncle ->
d1t06 - Big River
d1t07 - Ramble On Rose
d1t08 - New Minglewood Blues
d1t09 - Stagger Lee
d1t10 - The Music Never Stopped

Set 2:
d2t01 - Bertha ->
d2t02 - Good Lovin'
d2t03 - Brown Eyed Women
d2t04 - Estimated Prophet ->
d2t05 - Eyes Of The World ->
d2t06 - Drums ->
d2t07 - Not Fade Away ->
d2t08 - Goin' Down The Road Feeling Bad ->
d2t09 - Around And Around

Encore:
d1t11 - U.S. Blues


SHNTOOL OUTPUT:
    length     expanded size    cdr  WAVE problems  fmt   ratio  filename
     8:37.26       91259996 B   ---   --   ---xx   flac  0.5908  gd78-12-12d1t01.flac
    10:53.36      115273916 B   ---   --   ---xx   flac  0.5787  gd78-12-12d1t02.flac
     7:19.63       77587820 B   ---   --   ---xx   flac  0.5612  gd78-12-12d1t03.flac
     7:39.56       81099356 B   ---   --   ---xx   flac  0.5677  gd78-12-12d1t04.flac
     3:14.73       34393340 B   ---   --   ---xx   flac  0.5900  gd78-12-12d1t05.flac
     6:12.59       65759612 B   ---   --   ---xx   flac  0.5723  gd78-12-12d1t06.flac
     7:16.58       77046860 B   ---   --   ---xx   flac  0.5255  gd78-12-12d1t07.flac
     5:29.37       58122668 B   ---   --   ---xx   flac  0.5534  gd78-12-12d1t08.flac
     6:28.16       68480876 B   ---   --   ---xx   flac  0.5350  gd78-12-12d1t09.flac
     7:16.40       77004524 B   ---   --   ---xx   flac  0.5282  gd78-12-12d1t10.flac
     5:50.24       61796492 B   ---   --   ---xx   flac  0.5402  gd78-12-12d1t11.flac
     6:46.54       71745452 B   ---   --   ---xx   flac  0.5633  gd78-12-12d2t01.flac
     8:20.62       88345868 B   ---   --   ---xx   flac  0.5041  gd78-12-12d2t02.flac
     7:16.66       77065676 B   ---   --   ---xx   flac  0.5086  gd78-12-12d2t03.flac
    10:09.52      107549948 B   ---   --   ---xx   flac  0.5599  gd78-12-12d2t04.flac
    11:34.06      122435756 B   ---   --   ---xx   flac  0.5762  gd78-12-12d2t05.flac
     9:28.46      100303436 B   ---   --   ---xx   flac  0.4904  gd78-12-12d2t06.flac
     8:57.00       94726844 B   ---   --   ---xx   flac  0.5186  gd78-12-12d2t07.flac
     6:23.51       67681196 B   ---   --   ---xx   flac  0.5500  gd78-12-12d2t08.flac
     7:46.10       82225964 B   ---   --   ---xx   flac  0.5352  gd78-12-12d2t09.flac
   153:03.10     1619905600 B                            0.5469  (20 files)


ffp
gd78-12-12d1t01.flac:721506ac389fbe34018f5ffd09478e5f
gd78-12-12d1t02.flac:09a8eac3cceed2525da1b322983159d8
gd78-12-12d1t03.flac:95055f6608b81908fab88a1664b5301a
gd78-12-12d1t04.flac:de078b0aed70c51ccb7efa0b767fe636
gd78-12-12d1t05.flac:89e325103319df7e42e338e05635db0b
gd78-12-12d1t06.flac:5ffc95db22a641aae7ea7dabaad50822
gd78-12-12d1t07.flac:108037efdce794a15269e5eb24c3cb6d
gd78-12-12d1t08.flac:f68ec5cc79cf16fcf1f3c3c105ebd993
gd78-12-12d1t09.flac:4eb8a097bbd16a2fe0ed18aec1212717
gd78-12-12d1t10.flac:26a04aca1931efbff52dbf6ad3e9273c
gd78-12-12d1t11.flac:071938ee8756e68bb9e315ba2d28f0c9
gd78-12-12d2t01.flac:576a695642cf5e6461fd7849a00954d6
gd78-12-12d2t02.flac:3eaf351f3f4cb5d38d04a2708136b742
gd78-12-12d2t03.flac:a07d3cec14eed3670659a90a51f66597
gd78-12-12d2t04.flac:2d60da6951b2e83b9d2cd4374a3b9341
gd78-12-12d2t05.flac:c865f7e9360754fcc53d70d8151afe92
gd78-12-12d2t06.flac:6145063fe6ea38473f34bf2bbf962190
gd78-12-12d2t07.flac:a6ee51905c4de70098b7474629a79524
gd78-12-12d2t08.flac:e641da74669d326c2a53915b1419b1e0
gd78-12-12d2t09.flac:5efa8a40cbe3b1e04302a1449b22545c
2a5f856741a4ed0f7a53d57a8eb15cc2 *gd78-12-12d1t01.flac
4582e2091c0b18b647029e8d622780e3 *gd78-12-12d1t02.flac
31165556c6b5b86aba17f894d453d606 *gd78-12-12d1t03.flac
f06f3b4c8b0a684dec13f36ddbd481db *gd78-12-12d1t04.flac
bb571b225df74a76af1be800f06e4f89 *gd78-12-12d1t05.flac
30e2524dde0072c1f926e46a59dfed7a *gd78-12-12d1t06.flac
4ba2814ee34514402ef0c882bdb4333a *gd78-12-12d1t07.flac
702ca52fb55189ff040f1e631d07d960 *gd78-12-12d1t08.flac
b99567d0488c508e5a4dc158f2002ee8 *gd78-12-12d1t09.flac
29ce8713908aef51b9934fc5c5053363 *gd78-12-12d1t10.flac
c915cbb8cd2eb60825fd19c91406ba9b *gd78-12-12d1t11.flac
bba02a2d3a52c6fa70fa5218d93a9b7f *gd78-12-12d2t01.flac
5f8d76a2340dd8b07ed37e79c9821293 *gd78-12-12d2t02.flac
0eadd17596af5dc97d59c62160f61840 *gd78-12-12d2t03.flac
657c0b3dd82358931b7d7c452cb212ae *gd78-12-12d2t04.flac
a9d55f101f36326bfe0588bf12808328 *gd78-12-12d2t05.flac
61f55f245e430bbd293143ff7ba4a47d *gd78-12-12d2t06.flac
0499912dc5106acd87eb83da0230a434 *gd78-12-12d2t07.flac
f2cf4ba6f5db15416a5d78da668803f5 *gd78-12-12d2t08.flac
c8c4bdc5b88d19da74709317ba865912 *gd78-12-12d2t09.flac

Comments
Other Sources (comments)
Master Soundboard Reel>... (1) Recorded by Bob Wagner;... (0) SBD>MR>C>D>CD>EAC>SHN;... (3)
Date User Comment
etreedb.org
For administrative requests email contact@etreedb.org
This website written by Tom H Anderson and maintained by the etreedb.org community.

Cached: Tue, 17 Sep 2019 13:20:44 EDT