David Grisman 09/29/02
World Music Festival, Floyd, VA
Source # 124046
Entered by ziko
Checksums ffp
Disc Counts 0 / 0
Media Size
Date Circulated
Date Added
03/03/2013
03/03/2013
Download Text | Download Zip
Other Sources
Source Summary
Source: AKG c480b/ck61 (xy 120°, dfc, fob)>da-p1 Transfer: DA-20>sd722>firewire>wavelab 6.10 [iZotope Ozone 4 Crystal Resampler (downsample)]>CDWav (splits)>FLACFrontend
David Grisman Quintet
2002-09-29
Harvest Festival, Fairburn, Ga.

Source: AKG c480b/ck61 (xy 120°, dfc, fob)>da-p1
Transfer: DA-20>sd722>firewire>wavelab 6.10 [iZotope Ozone 4 Crystal Resampler (downsample)]>CDWav (splits)>FLACFrontend
taped and transferred by John Barren
A preTeam Dirty South Recording

01. EMD
02. Mellow Mang
03. Opus 38
04. Cedar Hill
05. Aprils' Wedding Bossa
06. intros
07. Grateful Dawg
08. Bluegrass at the Beach
09. Dawgnation
10. Slade
11. crowd
Encore
12. Dawg's Rag
13. end of fest thank yous


Shntool
    length     expanded size    cdr  WAVE problems  fmt   ratio  filename
    17:37.48      186567740 B   ---   --   ---xx   flac  0.4270  dgq2002-09-29t01.flac
    10:43.07      113441708 B   ---   --   ---xx   flac  0.4568  dgq2002-09-29t02.flac
    11:51.23      125474540 B   ---   --   ---xx   flac  0.4415  dgq2002-09-29t03.flac
     5:00.44       53023532 B   ---   --   ---xx   flac  0.4506  dgq2002-09-29t04.flac
     6:12.05       65632604 B   ---   --   ---xx   flac  0.4260  dgq2002-09-29t05.flac
     4:05.48       43330940 B   ---   --   ---xx   flac  0.3877  dgq2002-09-29t06.flac
     4:57.51       52510796 B   ---   --   ---xx   flac  0.4708  dgq2002-09-29t07.flac
     6:57.62       73704668 B   ---   --   ---xx   flac  0.4462  dgq2002-09-29t08.flac
     7:23.08       78164060 B   ---   --   ---xx   flac  0.4408  dgq2002-09-29t09.flac
     7:43.56       81804956 B   ---   --   ---xx   flac  0.4954  dgq2002-09-29t10.flac
     2:27.22       25982588 B   ---   --   ---xx   flac  0.4148  dgq2002-09-29t11.flac
     9:56.57      105268508 B   ---   --   ---xx   flac  0.4522  dgq2002-09-29t12.flac
     0:36.25        6409244 B   ---   --   ---xx   flac  0.4148  dgq2002-09-29t13.flac
    95:33.06     1011315884 B                            0.4441  (13 files)


ffp
dgq2002-09-29t01.flac:5440653d9aeea619522aa4114e279433
dgq2002-09-29t02.flac:bcf16d247520aae942c087b970e141cf
dgq2002-09-29t03.flac:6c7420fc1bc9c5ac0cb0c823b3f40052
dgq2002-09-29t04.flac:661a8ffda7d54ff2afbe7807440e8f00
dgq2002-09-29t05.flac:86d7dae7b692fd7e9ebe1cc8965505fe
dgq2002-09-29t06.flac:df377a8cf6d5a123e31125438599dfbe
dgq2002-09-29t07.flac:09df0339085d79959cc41349d1c9a351
dgq2002-09-29t08.flac:29bac57ddb4cefde7fc61df9b4143969
dgq2002-09-29t09.flac:669e5841cfb9b5ddd8a9ea1b46bd3d40
dgq2002-09-29t10.flac:83d5e3495f0237d891bf98c32c066bb6
dgq2002-09-29t11.flac:fb3557dcfaf6f335a39e76a34d3ec30a
dgq2002-09-29t12.flac:bb8884ef97c991a6c0663bf634c57b1c
dgq2002-09-29t13.flac:0f212a0572afe279ab7a9fb8b0060c5b

Comments
Date User Comment
etreedb.org
For administrative requests email contact@etreedb.org
This website written by Tom H Anderson and maintained by the etreedb.org community.

Cached: Tue, 24 Nov 2020 21:38:46 EST