Mickey Hart Band 02/28/13
The Fox Theatre, Boulder, CO
Source # 124059
Entered by ziko
Checksums ffp , md5
Disc Counts 0 / 0
Media Size
Date Circulated
Date Added

03/04/2013
Source Summary
3 source matrix; DPA 4022 | DPA 4027 | DPA 4060 Source 1: DPA 4022 > V3 (XY) -> Tascam DR680 Source 2: DPA 4027 (ORFT) -> Tascam DR680 Source 3: DPA 4060 (3 ft omni spread) -> Tascam DR680 Location: Directly in back of SBD. ~8 feet to left of center. Mics on stand at 9.5 feet. Transfer: Tascam DR680 (24/96) wav -> USB cable -> PC Editing: Wavelab plugins -> Flac(16)
  Mickey Hart Band
  Feb 28, 2013
  Fox Theater
  Boulder, CO
  Total Time = 151:53

  3 source matrix;
  DPA 4022 | DPA 4027 | DPA 4060

  Source 1: DPA 4022 > V3 (XY)
           -> Tascam DR680

  Source 2: DPA 4027 (ORFT)
           -> Tascam DR680

  Source 3: DPA 4060 (3 ft omni spread)
           -> Tascam DR680

  Location: Directly in back of SBD.
  ~8 feet to left of center.  Mics on
  stand at 9.5 feet.

  Transfer: Tascam DR680 (24/96) wav ->
  USB cable -> PC

  Editing: Wavelab plugins -> Flac(16)

  MD5's and SBE checked and verified.
  03/01/2013

  Recorded by Patrick H.

  Disc 1  Set 1 (75:51)
  01 Intro > Not Fade Away 10:15
  02 Time Never Ends 12:08
  03 Ramble on Rose 7:00
  04 Djinn Djinn 11:19
  05 Who Stole The Show 10:02
  06 West LA Fadeaway 8:20
  07 Cold War 9:00
  08 The Sermon 7:47

  Disc 2  Set 2 (77:55)
  01 Let there be Light 14:32
  02 Jingo 4:21
  03 Chabadas 7:16
  04 White Rabbit 2:33
  05 Other One > 7:04
  06 Mountains of the moon> 4:59
  07 Other One > 3:20
  08 Beam > HeartBeat> 9:10
  09 Falling Stars 6:37
  10 Bertha 8:52
  11 Intro 2:27
  12 E: Big Rail Road Blues 4:44

  Notes: The African Showboys opened
  and played a 30 minute set. MHB played
  2 very powerful sets. Mickey and band
  were animated and this was a very high
  energy show.

  Recorded with 3 sets of mics into tascam
  Located directly in back of board about
  8 feet left of center. The sound at the venue
  was very good. Sound of recording is very
  good. Crowd banter can be heard but is
  mostly background.

  Performance: A+
  Sound Quality: A-

  Support Live Music!

  shntool
    length     expanded size    cdr  WAVE problems  fmt   ratio  filename
    10:15.30      108556604 B   ---   --   -----    wav  1.0000  MHB_2013-02-28_D101.wav
    12:08.19      128463932 B   ---   --   -----    wav  1.0000  MHB_2013-02-28_D102.wav
     7:00.03       74095100 B   ---   --   -----    wav  1.0000  MHB_2013-02-28_D103.wav
    11:19.56      119907356 B   ---   --   -----    wav  1.0000  MHB_2013-02-28_D104.wav
    10:02.33      106270460 B   ---   --   -----    wav  1.0000  MHB_2013-02-28_D105.wav
     8:20.18       88242380 B   ---   --   -----    wav  1.0000  MHB_2013-02-28_D106.wav
     9:00.23       95310140 B   ---   --   -----    wav  1.0000  MHB_2013-02-28_D107.wav
     7:47.33       82456460 B   ---   --   -----    wav  1.0000  MHB_2013-02-28_D108.wav
    14:32.27      153884348 B   ---   --   -----    wav  1.0000  MHB_2013-02-28_D201.wav
     4:21.66       46195676 B   ---   --   -----    wav  1.0000  MHB_2013-02-28_D202.wav
     7:16.30       76981004 B   ---   --   -----    wav  1.0000  MHB_2013-02-28_D203.wav
     2:33.17       27029228 B   ---   --   -----    wav  1.0000  MHB_2013-02-28_D204.wav
     7:04.08       74812460 B   ---   --   -----    wav  1.0000  MHB_2013-02-28_D205.wav
     4:59.14       52776572 B   ---   --   -----    wav  1.0000  MHB_2013-02-28_D206.wav
     3:20.53       35404700 B   ---   --   -----    wav  1.0000  MHB_2013-02-28_D207.wav
     9:10.18       97062380 B   ---   --   -----    wav  1.0000  MHB_2013-02-28_D208.wav
     6:37.38       70120220 B   ---   --   -----    wav  1.0000  MHB_2013-02-28_D209.wav
     8:52.28       93910700 B   ---   --   -----    wav  1.0000  MHB_2013-02-28_D210.wav
     2:27.23       25984940 B   ---   --   -----    wav  1.0000  MHB_2013-02-28_D211.wav
     4:44.26       50158796 B   ---   --   -----    wav  1.0000  MHB_2013-02-28_D212.wav
   151:53.38     1607623456 B                            1.0000  (20 files)

  ffp
MHB_2013-02-28_D101.flac:1c310cf66a62bd5e67bb0ef51f6ab3cf
MHB_2013-02-28_D102.flac:e328accfb8074d03b1614e4bdc58c518
MHB_2013-02-28_D103.flac:57efd1e8d55d38897ba73e8f5a71b532
MHB_2013-02-28_D104.flac:01eda8c7141a93637f83c1b8a80c1b8c
MHB_2013-02-28_D105.flac:0545c017f0dca34ebcda4aee05a74584
MHB_2013-02-28_D106.flac:3b881d0c55669324dab7c8bedade9725
MHB_2013-02-28_D107.flac:b4d5f183c221f790e50e8388f5a79fe7
MHB_2013-02-28_D108.flac:fb285c736f84929d991f8de1cf772e19
MHB_2013-02-28_D201.flac:19ce3bc02930e28c0e57fbc82482873c
MHB_2013-02-28_D202.flac:c7cfa584c02e26e2a3f723af87cbbbfd
MHB_2013-02-28_D203.flac:625b0acf11f2a18791d0c48f04244081
MHB_2013-02-28_D204.flac:0aca4cc51d358b5ced97d36347d5458e
MHB_2013-02-28_D205.flac:605d270d42030a2d5b647b08452e28f7
MHB_2013-02-28_D206.flac:912b7829174a765fc74e2f35df622fb9
MHB_2013-02-28_D207.flac:b8cbf420461d0abd13ed7d99855f0d4f
MHB_2013-02-28_D208.flac:da58eec474f5795dbe76d197fe7e9e3d
MHB_2013-02-28_D209.flac:84c26ffa1e5f818814e600076541589a
MHB_2013-02-28_D210.flac:c46da02c5beb395c7f39a27db8a37d56
MHB_2013-02-28_D211.flac:a5ab0a131fe094c901b115bfb9f00171
MHB_2013-02-28_D212.flac:201152ad424cbd0d34316d7775496021


ffp
MHB_2013-02-28_D101.flac:1c310cf66a62bd5e67bb0ef51f6ab3cf
MHB_2013-02-28_D102.flac:e328accfb8074d03b1614e4bdc58c518
MHB_2013-02-28_D103.flac:57efd1e8d55d38897ba73e8f5a71b532
MHB_2013-02-28_D104.flac:01eda8c7141a93637f83c1b8a80c1b8c
MHB_2013-02-28_D105.flac:0545c017f0dca34ebcda4aee05a74584
MHB_2013-02-28_D106.flac:3b881d0c55669324dab7c8bedade9725
MHB_2013-02-28_D107.flac:b4d5f183c221f790e50e8388f5a79fe7
MHB_2013-02-28_D108.flac:fb285c736f84929d991f8de1cf772e19
MHB_2013-02-28_D201.flac:19ce3bc02930e28c0e57fbc82482873c
MHB_2013-02-28_D202.flac:c7cfa584c02e26e2a3f723af87cbbbfd
MHB_2013-02-28_D203.flac:625b0acf11f2a18791d0c48f04244081
MHB_2013-02-28_D204.flac:0aca4cc51d358b5ced97d36347d5458e
MHB_2013-02-28_D205.flac:605d270d42030a2d5b647b08452e28f7
MHB_2013-02-28_D206.flac:912b7829174a765fc74e2f35df622fb9
MHB_2013-02-28_D207.flac:b8cbf420461d0abd13ed7d99855f0d4f
MHB_2013-02-28_D208.flac:da58eec474f5795dbe76d197fe7e9e3d
MHB_2013-02-28_D209.flac:84c26ffa1e5f818814e600076541589a
MHB_2013-02-28_D210.flac:c46da02c5beb395c7f39a27db8a37d56
MHB_2013-02-28_D211.flac:a5ab0a131fe094c901b115bfb9f00171
MHB_2013-02-28_D212.flac:201152ad424cbd0d34316d7775496021
md5
94cab07039fcbe5ccd595f34937a49f9 *MHB_2013-02-28_D101.flac
247f1aca3ae9703337771c269e94f358 *MHB_2013-02-28_D102.flac
edc89bbcff2754d4762a82cec8d36e4f *MHB_2013-02-28_D103.flac
ef4e7655440a8faf59843cfeb4cf43db *MHB_2013-02-28_D104.flac
4be5839c4d9a3d655e28765c458a2a1b *MHB_2013-02-28_D105.flac
6c1ab735fc21e3970e09e56400ef2da8 *MHB_2013-02-28_D106.flac
9a31ec1793f399a862f6b75b62c1fd6f *MHB_2013-02-28_D107.flac
0e4aedf456e272dd9035610f78a53e71 *MHB_2013-02-28_D108.flac
3a4e47a7465a0a7f69150b04a327475b *MHB_2013-02-28_D201.flac
a636c958fdc0687c377ee0c91f676caf *MHB_2013-02-28_D202.flac
c91ef5c6ccf464bf1eab269948854a21 *MHB_2013-02-28_D203.flac
c371ff3c54cdf1295a89da66c123fbda *MHB_2013-02-28_D204.flac
525e8d718898bbd2b0003c0ef3614d33 *MHB_2013-02-28_D205.flac
d738238540a385a408d12ad0e61d0ee9 *MHB_2013-02-28_D206.flac
9b8c96d005345444895b774e8fab6965 *MHB_2013-02-28_D207.flac
2614c537a08bc663dbca6dd9180805df *MHB_2013-02-28_D208.flac
2fba2f5164dcee4310e3ac67f5196a31 *MHB_2013-02-28_D209.flac
3b77533d7f375d43fefaa3bffd5728ec *MHB_2013-02-28_D210.flac
2c28146689d549332f14a8a6b23e723f *MHB_2013-02-28_D211.flac
29d870bd5526a8f11b2327801ebf955c *MHB_2013-02-28_D212.flac

Comments
Other Sources (comments)
Source: Schoeps MK22>Kwon... (0)
Date User Comment
etreedb.org
For administrative requests email contact@etreedb.org
This website written by Tom H Anderson and maintained by the etreedb.org community.

Cached: Tue, 5 Mar 2024 00:16:15 EST