Grateful Dead 09/02/78
Giants Stadium, East Rutherford, NJ
Source Summary
flac16; Set 2 Recording Info: (FOB) Sony 54P -> Cassette Master (Sony TC-158SD); Transfer Info: Cassette Master (Sony TC-K677ES) -> Sound Devices 744T (24bit/48k) -> Adobe Audition v3.0 -> Samplitude Professional v11.2.1 -> FLAC/16; Recorded by: Bob Wagner; All Transfers and Mastering By Charlie Miller
Grateful Dead - September 2, 1978
Giants Stadium - East Rutherford, NJ

Recording Info:
(FOB) Sony 54P -> Cassette Master (Sony TC-158SD)

Transfer Info:
Cassette Master (Sony TC-K677ES) -> Sound Devices 744T (24bit/48k) ->
Adobe Audition v3.0 -> Samplitude Professional v11.2.1 -> FLAC/16
(2 Discs Audio / 1 Disc FLAC)

All Transfers and Mastering By Charlie Miller
charliemiller87@earthlink.net
May 16, 2013

Notes:
-- Set 2 is seamless
-- Thanks to Bob Wagner for lending me his masters
-- He only taped Set 2 due to a very late arrival
-- Thanks to Joe B. Jones for his help with the pitch correction

Set 2:
s2t01 - Good Lovin'
s2t02 - Scarlet Begonias ->
s2t03 - Fire On The Mountain
s2t04 - Estimated Prophet ->
s2t05 - Eyes Of The World ->
s2t06 - Drums ->
s2t07 - Space ->
s2t08 - Sugar Magnolia

Encore:
s2t09 - One More Saturday Night


SHNTOOL OUTPUT:
    length     expanded size    cdr  WAVE problems  fmt   ratio  filename
     8:41.53       92029100 B   ---   --   ---xx   flac  0.6591  gd78-09-02s2t01.flac
    14:16.36      151083116 B   ---   --   ---xx   flac  0.6686  gd78-09-02s2t02.flac
    14:34.10      154197164 B   ---   --   ---xx   flac  0.6631  gd78-09-02s2t03.flac
    14:47.39      156558572 B   ---   --   ---xx   flac  0.6335  gd78-09-02s2t04.flac
    15:49.37      167490668 B   ---   --   ---xx   flac  0.6460  gd78-09-02s2t05.flac
     7:02.67       74598428 B   ---   --   ---xx   flac  0.6091  gd78-09-02s2t06.flac
     1:15.27       13293548 B   ---   --   ---xx   flac  0.6117  gd78-09-02s2t07.flac
    12:00.47      127118588 B   ---   --   ---xx   flac  0.6694  gd78-09-02s2t08.flac
     5:05.62       53947868 B   ---   --   ---xx   flac  0.6844  gd78-09-02s2t09.flac
    93:34.03      990317052 B                            0.6532  (9 files)



ffp
gd78-09-02s2t01.flac:02e0beb61bfa5b8a423e3569ee203ded
gd78-09-02s2t02.flac:c8ad0f07c19103541473797110e697b1
gd78-09-02s2t03.flac:abebcd88958f2d3cf622bfb66836763c
gd78-09-02s2t04.flac:17d61fa3699e9c9a8515477d2e786623
gd78-09-02s2t05.flac:564fc28adcd9c365c0a3b98db92bf34b
gd78-09-02s2t06.flac:51a6bfa3c13799b459fd64571ecbde39
gd78-09-02s2t07.flac:7df5a0bbcaf6fe4bb655252edfa260e2
gd78-09-02s2t08.flac:849b0ea5cac87a39ab277d61d2b4fdc7
gd78-09-02s2t09.flac:101473e14cb8b2b2d2174321a9be34b7
d9adec84ca73b46a67a7c74c45f7dff5 *gd78-09-02s2t01.flac
17b0f4f0835eb2031f9dfbafb77502d5 *gd78-09-02s2t02.flac
e0094c39848c850fdfac100a30fb03b4 *gd78-09-02s2t03.flac
fad48ab561d1e31a32b646b4b1514eb0 *gd78-09-02s2t04.flac
ebde4835d2c453594589993702200e34 *gd78-09-02s2t05.flac
09f20625be212e43a6fcd70225f2dabc *gd78-09-02s2t06.flac
c20ab461c89d2c78320478b4a49ef42f *gd78-09-02s2t07.flac
e393bf59535a6cdf2866d466d61fa082 *gd78-09-02s2t08.flac
c5a9c2a5791a9f2a0b73197b4316cb55 *gd78-09-02s2t09.flac

Comments
etreedb.org
For administrative requests email contact@etreedb.org
This website written by Tom H Anderson and maintained by the etreedb.org community.

Cached: Tue, 17 Sep 2019 13:22:53 EDT