Grateful Dead 05/14/78
Providence Civic Center, Providence, RI
Source # 124932
Entered by Matt Vernon
Checksums ffp , flac-md5
Disc Counts 0 / 0
Media Size Compressed: 1.05 GB (1129208795 bytes)
Uncompressed: 1.78 GB (1905920560 bytes)
Date Circulated
Date Added
07/04/2013
07/04/2013
Source Summary
flac16; 2 source matrix by dusborne; Soundboard (shinid:108996) SBD -> Cassette Master -> Dat -> CD; CD -> Samplitude Professional v10.1 -> FLAC; All Transfers and Mastering By Charlie Miller and Audience (shnid:7639) Sony ECM33P7 + AKGD1000e> Teac PC-10 > Master Audience Cass > DAT's; Tascam DA-P1 dat @48 > Sek'd Prodif+ Card (resampled to 44.1) > Sek'd Red Roaster (edits*) > Cdwav > Mkw; Boundaries verified with Shntool; No dae, no normalizing, no eq or processing of any kind; Source tapes from Matt Vernon; Dat > shn transfer by Dale Shepherd
Grateful Dead
May 14, 1978
Civic Center
Providence, RI

2 Source Matrix

Soundboard (shinid:108996)
------------------------------------------------------------------------------------
gd1978-05-14.sbd.miller.108996.flac16


Recording Info:
SBD -> Cassette Master -> Dat -> CD

Transfer Info:
CD -> Samplitude Professional v10.1 -> FLAC
(3 Discs Audio / 2 Discs FLAC)

All Transfers and Mastering By Charlie Miller
charliemiller87@earthlink.net
August 5, 2010

Patch Info:
(FOB) Sony ECM-33P + AKG D1000E -> Cassette Master -> CD (shnid=7639) supplies:
Looks Like Rain (0:00 - 0:16)
Eyes Of The World (14:11 - 14:30)
U.S. Blues (0:00 - 0:39)

Notes:
-- Set 2 is seamless
-- Fixed flaws in Let It Grow but some still remain

Audience (shnid:7639)
------------------------------------------------------------------------------------
gd78-05-14.aud.vernon.7639.sbeok.flac16


Sony ECM33P7 + AKGD1000e> Teac PC-10 > Master Audience Cass > DAT's

Tascam DA-P1 dat @48 > Sek'd Prodif+ Card (resampled to 44.1) >
Sek'd Red Roaster (edits*) > Cdwav > Mkw
Boundaries verified with Shntool
No dae, no normalizing, no eq or processing of any kind

Source tapes from Matt Vernon
Dat > shn transfer by Dale Shepherd

edits
d1t01 added fade in
d1t05 edited out dead air after "it must have been the roses"
d2t01 'samson' was on the end of the set 1 dat and it faded out.
      likewise, "ship of fools" started the second dat with a fade
      in. i edited out the fades so that it sounds like a
      start/stop, more in line with the rest of the show.
d2t03 another fade between "ship of fools" and "estimated prophet"
      i did the same thing as d2t01 edit
d3t03 after "around" the dat faded out and then back in. i edtited
      out the fades just like d2t03 & d2t01
d3t04 added fadeout at the end of the show

known flaws:
d2t05 tape flip during "drums"

Flac encoding notes:
All processing with Trader's Little Helper
Shn - st5 generated
Shn > Flac ( level 8 )
Flac - st5 generated and matched to Shn st5

B. Proctor 2-18-09

------------------------------------------------------------------------------------
---Thank you Charlie Miller for your work on the SBD.
---Thank you Dale Shepherd transfering the DAT.
---Thank you Matt Vernon for providing the source tapes.
---Thank you Germain for your advice, encouragement, guidance and seeding.

Matrix by dusborne

06-04-2013
------------------------------------------------------------------------------------

Set 1

101 - gd78-05-14s1t01 - Tuning
102 - gd78-05-14s1t02 - Mississippi Half-Step Uptown Toodeloo
103 - gd78-05-14s1t03 - Cassidy
104 - gd78-05-14s1t04 - They Love Each Other
105 - gd78-05-14s1t05 - Looks Like Rain
106 - gd78-05-14s1t06 - It Must Have Been the Roses
107 - gd78-05-14s1t07 - Me & My Uncle ->
108 - gd78-05-14s1t08 - Big River
109 - gd78-05-14s1t09 - Brown Eyed Women
110 - gd78-05-14s1t10 - Let It Grow

Set 2

201 - gd78-05-14s2t01 - Tuning
202 - gd78-05-14s2t02 - Samson & Delilah
203 - gd78-05-14s2t03 - Ship of Fools
204 - gd78-05-14s2t04 - Estimated Prophet ->
205 - gd78-05-14s2t05 - Eyes of the World ->
206 - gd78-05-14s2t06 - Drums ->
207 - gd78-05-14s2t07 - Not Fade Away ->
208 - gd78-05-14s2t08 - Goin' Down the Road Feeling Bad ->
209 - gd78-05-14s2t09 - Around & Around

--Encore--
210 - gd78-05-14s2t10 - U.S. Blues
------------------------------------------------------------------------------------
Tagging notes:
Show information is embedded within the header
of each flac file. It will display on any player
capable of directly playing flac files.
If converted to wav during processing, all tags
will be stripped, however audio data will remain
unaffected. If you must transcode to a lossy format,
do so directly Flac > Lossy.
Use st5 to validate audio integrity.
Md5 values will change if tagging is altered.
dusborne 06-04-2013
------------------------------------------------------------------------------------
    length     expanded size    cdr  WAVE problems  fmt   ratio  filename
     0:31.70        5633084 B   ---   --   ---xx   flac  0.5737  gd78-05-14s1t01.flac
    12:33.44      132932732 B   ---   --   ---xx   flac  0.5801  gd78-05-14s1t02.flac
     5:57.20       63021884 B   ---   --   ---xx   flac  0.5931  gd78-05-14s1t03.flac
     7:21.37       77879468 B   ---   --   ---xx   flac  0.5808  gd78-05-14s1t04.flac
     9:50.28      104141900 B   ---   --   ---xx   flac  0.5747  gd78-05-14s1t05.flac
     6:53.54       72980252 B   ---   --   ---xx   flac  0.5740  gd78-05-14s1t06.flac
     2:58.39       31490972 B   ---   --   ---xx   flac  0.6057  gd78-05-14s1t07.flac
     6:34.26       69562796 B   ---   --   ---xx   flac  0.6066  gd78-05-14s1t08.flac
     6:33.51       69445196 B   ---   --   ---xx   flac  0.5897  gd78-05-14s1t09.flac
    17:51.53      189049100 B   ---   --   ---xx   flac  0.6159  gd78-05-14s1t10.flac
     1:14.13       13084220 B   ---   --   ---xx   flac  0.5207  gd78-05-14s2t01.flac
    10:39.45      112825484 B   ---   --   ---xx   flac  0.5999  gd78-05-14s2t02.flac
     8:35.10       90869564 B   ---   --   ---xx   flac  0.5621  gd78-05-14s2t03.flac
    13:56.21      147519836 B   ---   --   ---xx   flac  0.5904  gd78-05-14s2t04.flac
    15:40.21      165865436 B   ---   --   ---xx   flac  0.6077  gd78-05-14s2t05.flac
    13:01.27      137831948 B   ---   --   ---xx   flac  0.5745  gd78-05-14s2t06.flac
    15:28.44      163802732 B   ---   --   ---xx   flac  0.5841  gd78-05-14s2t07.flac
     7:56.07       83982908 B   ---   --   ---xx   flac  0.6077  gd78-05-14s2t08.flac
    10:45.15      113813324 B   ---   --   ---xx   flac  0.6132  gd78-05-14s2t09.flac
     5:41.15       60187724 B   ---   --   ---xx   flac  0.6034  gd78-05-14s2t10.flac
   180:04.40     1905920560 B                            0.5923  (20 files)


ffp
gd78-05-14s1t01.flac:409a58de29cf3148182e631a4ed672c3
gd78-05-14s1t02.flac:12b5847ca8ef19bd10fff0e607898a08
gd78-05-14s1t03.flac:b51d79d94e53470b9957e5b19e62a924
gd78-05-14s1t04.flac:75a595af965f128904e32a5a87ddd78c
gd78-05-14s1t05.flac:f1e50ed17700d452aa85b241f5632819
gd78-05-14s1t06.flac:a969c2718c3bdccf8c7c50a0b49efd57
gd78-05-14s1t07.flac:6f9b4873a40798c5f3d4c04ce7643f01
gd78-05-14s1t08.flac:f52351fe34bb0955b602f0a9bf9c45ba
gd78-05-14s1t09.flac:38bbf78dd04ebd3f9cf78da54df855ae
gd78-05-14s1t10.flac:e2bac5e14ca7b875191e75b25010e2a5
gd78-05-14s2t01.flac:8e63eb378a759cb7c27919a2c30648d2
gd78-05-14s2t02.flac:3ea1290876b7cc1397b5b8dd26d374b5
gd78-05-14s2t03.flac:025e3b6fd11b7519abd9a735bab21ecf
gd78-05-14s2t04.flac:ee5f47d94b3d2c9ee1dc419c0d15d8de
gd78-05-14s2t05.flac:431f792c623ecdf468f3de55b0416f09
gd78-05-14s2t06.flac:7a650705502aa8fa8cad8a4e9ec09dec
gd78-05-14s2t07.flac:624a0e8daf5206e21d9006b4aa9d8e99
gd78-05-14s2t08.flac:ca0755da42980330f94735c9c1d990c7
gd78-05-14s2t09.flac:9b4bcf82eeb93c3068d2ea2893230113
gd78-05-14s2t10.flac:d9eb348932ab152d1f6cc5f6eee52ab3
88d2e306135ac8d0a840a26bc5a001ff *gd78-05-14s1t01.flac
8fdc5cb5ad1aa708bc71202f2d2e4175 *gd78-05-14s1t02.flac
19afc8d44c29f0f6d1b2067087bd55db *gd78-05-14s1t03.flac
1c3232c446a418c0d96974195a112f97 *gd78-05-14s1t04.flac
dc2f54fc2ffb08d2647aeab95f6d6879 *gd78-05-14s1t05.flac
eb0fa313a0bdd03a513e12d51a3bad8d *gd78-05-14s1t06.flac
cd1afec2bd2f421480ce424e1dfbeb20 *gd78-05-14s1t07.flac
03b1d3178c0b4abab3ea3989b5878c24 *gd78-05-14s1t08.flac
e38525ef38710d521f4ea20be6a5bc50 *gd78-05-14s1t09.flac
7ab408fd813cfc7bead4723b8448c249 *gd78-05-14s1t10.flac
bc0a3e4d18e73adbae2e12c0cb752600 *gd78-05-14s2t01.flac
2d7156ea92b6baa56c404b6c1bb911d7 *gd78-05-14s2t02.flac
ec5adffde41674bd038a123dce849efd *gd78-05-14s2t03.flac
568beeffbf716eb28a466b8590161a7e *gd78-05-14s2t04.flac
84fba669d03e5aeeeeb83af2e20f897e *gd78-05-14s2t05.flac
82eb715327a836f46751db0fa96f8bfa *gd78-05-14s2t06.flac
6a843659329844e2d0cd19087eb184cf *gd78-05-14s2t07.flac
30636f9825a3bfc76638e74a04535d10 *gd78-05-14s2t08.flac
cae53083df8f653bc95f3103584b6f88 *gd78-05-14s2t09.flac
8d35668ec8b91ff2672f8ff799472099 *gd78-05-14s2t10.flac

Comments
Other Sources (comments)
Sony ECM33P7 + AKGD1000e>... (0) flac16 ;AUD: 1x AKG D200E... (0) flac16 ; Recording... (1)
Date User Comment
etreedb.org
For administrative requests email contact@etreedb.org
This website written by Tom H Anderson and maintained by the etreedb.org community.

Cached: Wed, 18 Sep 2019 12:38:03 EDT