Grateful Dead 08/31/78
Red Rocks Amphitheatre, Morrison, CO
Source Summary
flac16; Recording Info: SBD -> Cassette Master (Maxell UDXLI-C90); Transfer Info: Cassette Master (Nakamichi DR-1) -> Sound Devices 744T (24bit/48k) -> Adobe Audition v3.0 -> Samplitude Professional v11.03 -> FLAC/16; All Transfers and Mastering By Charlie Miller
Grateful Dead - August 31, 1978
Red Rocks Amphitheatre - Morrison, CO

Recording Info:
SBD -> Cassette Master (Maxell UDXLI-C90)

Transfer Info:
Cassette Master (Nakamichi DR-1) -> Sound Devices 744T (24bit/48k) ->
Adobe Audition v3.0 -> Samplitude Professional v11.03 -> FLAC/16
(3 Discs Audio / 1 DVD FLAC)

All Transfers and Mastering By Charlie Miller
charliemiller87@earthlink.net
June 17, 2013

Patch Info:
Unknown Mics -> Cassette Master -> Dat -> CD (shnid=11480) supplies:
Terrapin Station (7:36 - 9:25)
Not Fade Away (10:34 - end of track)
Black Peter (complete track)
Sugar Magnolia (complete track)
Johnny B. Goode (complete track)

Notes:
-- Set 2 is seamless
-- Not Fade Away has a Nobody's Fault But Mine jam
-- Encore has extra analog gens
-- Thanks to Matt Smith for the encore
-- Thanks to Joe B. Jones for his help with the pitch correction

Set One:
d1t01 - Tuning
d1t02 - Mississippi Half-Step Uptown Toodeloo ->
d1t03 - El Paso
d1t04 - Peggy-O
d1t05 - Minglewood Blues
d1t06 - Candyman
d1t07 - From The Heart Of Me
d1t08 - Jack Straw

Set Two:
d2t01 - Shakedown Street ->
d2t02 - Good Lovin'
d2t03 - Ship Of Fools
d2t04 - Samson And Delilah
d2t05 - Terrapin Station ->
d2t06 - Playing In The Band ->
d2t07 - Drums ->
d2t08 - Ollin Arageed  ->
d3t01 - Not Fade Away ->
d3t02 - Black Peter ->
d3t03 - Sugar Magnolia

Encore:
d3t04 - Johnny B. Goode


SHNTOOL OUTPUT:
   length     expanded size    cdr  WAVE problems  fmt   ratio  filename
    2:07.57       22536908 B   ---   --   ---xx   flac  0.5348  gd78-08-31d1t01.flac
   10:35.37      112101068 B   ---   --   ---xx   flac  0.6018  gd78-08-31d1t02.flac
    5:19.25       56330444 B   ---   --   ---xx   flac  0.5924  gd78-08-31d1t03.flac
   10:47.23      114184940 B   ---   --   ---xx   flac  0.5668  gd78-08-31d1t04.flac
    7:00.10       74111564 B   ---   --   ---xx   flac  0.5866  gd78-08-31d1t05.flac
    7:33.31       79982156 B   ---   --   ---xx   flac  0.5729  gd78-08-31d1t06.flac
    5:11.26       54921596 B   ---   --   ---xx   flac  0.5653  gd78-08-31d1t07.flac
    6:35.15       69713324 B   ---   --   ---xx   flac  0.5853  gd78-08-31d1t08.flac
    6:42.23       70966940 B   ---   --   ---xx   flac  0.6066  gd78-08-31d2t01.flac
    9:00.11       95281916 B   ---   --   ---xx   flac  0.5904  gd78-08-31d2t02.flac
    9:26.73      100014140 B   ---   --   ---xx   flac  0.5761  gd78-08-31d2t03.flac
   10:14.70      108474284 B   ---   --   ---xx   flac  0.6078  gd78-08-31d2t04.flac
   11:02.30      116847404 B   ---   --   ---xx   flac  0.6165  gd78-08-31d2t05.flac
   13:46.12      145734668 B   ---   --   ---xx   flac  0.6236  gd78-08-31d2t06.flac
   16:30.13      174666620 B   ---   --   ---xx   flac  0.6212  gd78-08-31d2t07.flac
    3:07.05       32998604 B   ---   --   ---xx   flac  0.6283  gd78-08-31d2t08.flac
   13:07.52      138949148 B   ---   --   ---xx   flac  0.6187  gd78-08-31d3t01.flac
   10:33.15      111696524 B   ---   --   ---xx   flac  0.5744  gd78-08-31d3t02.flac
    8:25.03       89089100 B   ---   --   ---xx   flac  0.6023  gd78-08-31d3t03.flac
    4:05.02       43222748 B   ---   --   ---xx   flac  0.5978  gd78-08-31d3t04.flac
  171:11.08     1811824096 B                            0.5980  (20 files)


ffp
gd78-08-31d1t01.flac:6c99d73fb6698a49b0ead713da3f76d2
gd78-08-31d1t02.flac:b07d068a834a8ef3e175b7d1d3013cec
gd78-08-31d1t03.flac:6d51aba8984824580f3e7e5612caaa0b
gd78-08-31d1t04.flac:133d755ada38fb18748006c4b3b8fc97
gd78-08-31d1t05.flac:af213fee7e4b1ed0f3a8a6d7171d8677
gd78-08-31d1t06.flac:0bae92ab9bf235fa55117baa47f492f3
gd78-08-31d1t07.flac:bfddddb0d71c3454acce2181bb46554d
gd78-08-31d1t08.flac:2384076e2017b9c7f8c9164e51a13547
gd78-08-31d2t01.flac:8d31a4c2c002eec61033eff4b52e3295
gd78-08-31d2t02.flac:c294ed85fafed76353173bcfcab70c2a
gd78-08-31d2t03.flac:68a77c5856d9df0b63c91bfe43db6c8f
gd78-08-31d2t04.flac:e0bbd17ef94cb520bf036f3d9c15d642
gd78-08-31d2t05.flac:7cf17db4c496ab5fbf7389e4dab996be
gd78-08-31d2t06.flac:430c03660a9975372cd3fc937755e8f7
gd78-08-31d2t07.flac:6a2a8472457d28cce1b2be1de20e3fb1
gd78-08-31d2t08.flac:fc81ffde637ddd40f87172cad7caf250
gd78-08-31d3t01.flac:44fa00cc58fab89918c188ceec21a44f
gd78-08-31d3t02.flac:d43800b777258f048b5ad28e76001deb
gd78-08-31d3t03.flac:1a2867c7ab4070a8d073eb94d98fb4bd
gd78-08-31d3t04.flac:d82a3894759ec88250b9be86182d0259
ae30a2c8348cbf5b8b372ab6cd48a304 *gd78-08-31d1t01.flac
8cd2765ef0f15e630ea82cbcd03b560c *gd78-08-31d1t02.flac
bf297f804829c8cc758ed96e7670863f *gd78-08-31d1t03.flac
b5117384fbe5bbb7abc00147a83740de *gd78-08-31d1t04.flac
1fd7f4aa1e14d2536d3a3ad79ccb00f1 *gd78-08-31d1t05.flac
016b56bbc65961b804c4d4cbde4cba4c *gd78-08-31d1t06.flac
45ff18bdac1db1d87c3bcc56c4853d00 *gd78-08-31d1t07.flac
d6149390d44534f2fee2669600c568bc *gd78-08-31d1t08.flac
bbfbff6e8c00a95046dab91c6b450878 *gd78-08-31d2t01.flac
7243df4cfe43822d7069de8b7368cf7e *gd78-08-31d2t02.flac
d16923d063c9efdcefcfb2e1924e60dc *gd78-08-31d2t03.flac
7d416e46abd8fce3df53f6190cde307d *gd78-08-31d2t04.flac
62f4a9067ece4a6b7eedce2b3a7421e2 *gd78-08-31d2t05.flac
9d5feba35fdd3bc08a77dc4bc54337ef *gd78-08-31d2t06.flac
83a8e925080f6a0802b7b363ffeca726 *gd78-08-31d2t07.flac
e65ebd2876ffce3b821b8250e10c1a9d *gd78-08-31d2t08.flac
e16ff2d087362384bb0a91119150be64 *gd78-08-31d3t01.flac
199efe4e548a1aa80eed59e91e773fb6 *gd78-08-31d3t02.flac
486113f950de685768d1efab5dde45bb *gd78-08-31d3t03.flac
374716b666a39730ef6b97e44fcf9c3d *gd78-08-31d3t04.flac

Comments
etreedb.org
For administrative requests email contact@etreedb.org
This website written by Tom H Anderson and maintained by the etreedb.org community.

Cached: Tue, 17 Sep 2019 09:20:55 EDT