Jim Weider's ProJECT PERCoLAToR 02/27/09
York Harbor Inn, York, ME
Source # 126531
Entered by Mark Goldey
Checksums ffp
Disc Counts 0 / 0
Media Size
Date Circulated
Date Added
02/28/2009
01/01/2014
Download Text | Download Zip
Other Sources
Source Summary
Jim Weider's ProJECT PERCoLAToR - 2009-02-27 - York, Maine (AKG414 > V3)
Jim Weider\'s Project Percolator
2009-02-27
York Harbor Inn
York, ME

Disc 1:
01 Squirrels In Paris
02 Pulse
03 Broken Glass
04 New Day
05 The Weight

Disc 2:
01 band intros
02 Flight
03 Percolator
04 Talking with You
05 Man Cry
06 Bass/Drums
07 Drums
08 Man Cry
-- crowd noise trimmed --
09 encore return
10 No Exit Stategy
-- crowd noise trimmed --
11 Motivator

Source: AKG414 > Hydra > V3 S/PDIF > R4 (24/48)
Setup:  Hypercards,DINa, at SBD, 40\' out, 6\' high
xfer:   R4 > audacity (level/fade) > ssrc (to 16/44) > shntool split/flac
Taped/Transferred/Seeded by: SmokinJoe

Note: Some dead air and inaudible banter was trimmed between tracks.

    length     expanded size   cdr  WAVE problems filename
     8:49.33       93393260    ---   --   ---xx   jwpp2009-02-27d1t01.flac
     7:38.53       80915900    ---   --   ---xx   jwpp2009-02-27d1t02.flac
    10:59.42      116346428    ---   --   ---xx   jwpp2009-02-27d1t03.flac
     9:29.33      100449260    ---   --   ---xx   jwpp2009-02-27d1t04.flac
    13:37.66      144274076    ---   --   ---xx   jwpp2009-02-27d1t05.flac
     1:13.43       12978380    ---   --   ---xx   jwpp2009-02-27d2t01.flac
     7:32.56       79864556    ---   --   ---xx   jwpp2009-02-27d2t02.flac
    11:31.22      121944188    ---   --   ---xx   jwpp2009-02-27d2t03.flac
    13:41.56      144956156    ---   --   ---xx   jwpp2009-02-27d2t04.flac
     7:40.20       81191084    ---   --   ---xx   jwpp2009-02-27d2t05.flac
     1:45.74       18696092    ---   --   ---xx   jwpp2009-02-27d2t06.flac
     5:23.02       56981948    ---   --   ---xx   jwpp2009-02-27d2t07.flac
     4:44.44       50201132    ---   --   ---xx   jwpp2009-02-27d2t08.flac
     1:25.63       15142220    ---   --   ---xx   jwpp2009-02-27d2t09.flac
     8:40.67       91885628    ---   --   ---xx   jwpp2009-02-27d2t10.flac
     7:58.74       84493660    -b-   --   ---xx   jwpp2009-02-27d2t11.flac
   122:13.73     1293713968 B                     (totals for 16 files, 0.5874 overall compression ratio)
ffp
ffps:
jwpp2009-02-27d1t01.flac:5534c98f03781665b761b8d4ae61f076
jwpp2009-02-27d1t02.flac:ad6cef705256243f7eb1e146d161790a
jwpp2009-02-27d1t03.flac:efca7209729fbd431268200e333e3508
jwpp2009-02-27d1t04.flac:e61e65fb041757f6e172bad8ff384562
jwpp2009-02-27d1t05.flac:e244e8762610b151037c717ef9e40e71
jwpp2009-02-27d2t01.flac:fe3b6af7f0f5a7043cce3ab256a54b77
jwpp2009-02-27d2t02.flac:840f596ee39367bf552ff15d50d2c669
jwpp2009-02-27d2t03.flac:404d0951d512c45002cba1b1b9d533ee
jwpp2009-02-27d2t04.flac:bd4b84a6451790807fd0ef9981ac2a47
jwpp2009-02-27d2t05.flac:2368a855d042f3ef238c318af16ad7f0
jwpp2009-02-27d2t06.flac:1dcbeb024b5521b8ba3cbcf6edf11aa8
jwpp2009-02-27d2t07.flac:3fde0f9945a9af75e7c061ca4b5f897a
jwpp2009-02-27d2t08.flac:5beee579485098a6af97ff396d5f2c40
jwpp2009-02-27d2t09.flac:7014f307a755459c8b13e96452723cf8
jwpp2009-02-27d2t10.flac:c4f00afe000af03eb2391fc2f027075f
jwpp2009-02-27d2t11.flac:e9935632ba739643b8c747802ffdf38e

md5sums:
e4edaeff6b4bf98a022e76ef921284fc *jwpp2009-02-27d1t01.flac
be336f7843be60518ff87812b7bca9d2 *jwpp2009-02-27d1t02.flac
c410b495e9286bd857fc6db7eba973dd *jwpp2009-02-27d1t03.flac
e4895e03ccb5c0f509e5f819bc254fb5 *jwpp2009-02-27d1t04.flac
ffaafdb8d8174996eee8a82e99284046 *jwpp2009-02-27d1t05.flac
39bac14507a967fe3c646de17b7ad159 *jwpp2009-02-27d2t01.flac
8bdf512c418ff9db4e36d8343980ebbe *jwpp2009-02-27d2t02.flac
e8cb0de47cb5007a29d6f1b12054a286 *jwpp2009-02-27d2t03.flac
de4a378ec0794c5f37211bd6214d72c6 *jwpp2009-02-27d2t04.flac
ddd1bbf64dc7e075b939c943e76b14ec *jwpp2009-02-27d2t05.flac
f815ee6d9acb26076fd3f5d5400cd6f6 *jwpp2009-02-27d2t06.flac
505a5405653562e0d9be22fb0e532049 *jwpp2009-02-27d2t07.flac
119380d98d9625f6bf3694abc3dad9ab *jwpp2009-02-27d2t08.flac
fb4319de6b597721cb529ca9bf14c1c7 *jwpp2009-02-27d2t09.flac
a12e70e7204dc65a7ce432b89ff694ab *jwpp2009-02-27d2t10.flac
63ad4d07b824ab48a34049b8d9a20320 *jwpp2009-02-27d2t11.flac

Comments
Date User Comment
etreedb.org
For administrative requests email contact@etreedb.org
This website written by Tom H Anderson and maintained by the etreedb.org community.

Cached: Wed, 25 Nov 2020 03:31:00 EST