Grateful Dead 11/24/78
Capitol Theatre, Passaic, NJ
Source Summary
DTS-Audio-CD 5.1 Mix; SBD1 (shnid=87642) Recording Info: WBCN Pre-FM -> Studer Console -> Master Reel -> Dat/0 (Sony ES/48k) Transfer Info: Dat (Sony D8) -> Samplitude Professional v9.11 -> FLAC All Transfers and Mastering By Charlie Miller + SBD2 (shn id 32876) SBD(PreFM) > MR>DAT > CDA > Wav(EAC) > SHN > DAW(Bertha) > Audio DVD > DVD Audio Extractor v.3.3.2 (audio files extracted prior to burning to DVD disc) > 24/48 wav > downsampled to 44.1 wav with Wave Lab v.5.00a > dithered from 24 to 16 bit depth with Wave Lab UV22 HR Plugin > SBEs fixed with shntool v.2.0.3 (by set) > FLAC encoding with FLAC Frontend v.1.7.1 Etree Edition, FLAC v.1.1.2 (level 8); Bertha remaster of shn id 13948 + VID (no shn id) low generation video supplied in dvd format for video project - dts mixing by Kevin Tobin
Grateful Dead.
Capitol Theater
Passaic, NJ
11-24-78

DTS-Audio-CD 5.1 Mix

Set 1:
d1t01 - Introduction
d1t02 - Jack Straw
d1t03 - Sugaree
d1t04 - Me & My Uncle ->
d1t05 - Big River
d1t06 - Stagger Lee
d1t07 - Passenger
d1t08 - Candyman
d1t09 - New Minglewood Blues
d1t10 - From the Heart of Me
d2t01 - Loser
d2t02 - The Promised Land

Set 2:
d2t03 Tuning
d2t04 - I Need a Miracle ->
d2t05 - Good Lovin'
d2t06 - Friend of the Devil
d3t01 - Estimated Prophet ->
d3t02 - Shakedown Street ->
d3t03 - Drums ->
d3t04 - Ollin Arrageed* ->
d3t05 - Fire on the Mountain ->
d3t06 - Sugar Magnolia

Encore
d3t07 - Johnny B.Goode

* with Hamza El Din

Audio Source Information
Soundboard 1
shnid = 87642
WBCN Pre-FM -> Studer Console -> Master Reel -> Dat/0 (Sony ES/48k)

Transfer Info:
Dat (Sony D8) -> Samplitude Professional v9.11 -> FLAC
(3 Discs Audio / 2 Discs FLAC)

All Transfers and Mastering By Charlie Miller
charliemiller87@earthlink.net
October 10, 2007

Notes:
-- All disc changes are seamless
-- Soundcheck from Dan Sisler's video tape (sorry about the quality)
-- Thanks to cryptical5 for the Master Dats
-- Ollin Arrageed with Hamza El Din
-- Cleaned up many flaws and removed station ID's

Patch Info:
FM -> Master Reel -> CD (shnid=8364) supplies:
Me And My Uncle (0:43 - 1:07)
Big River (1:54 - 1:55) (2:55 - 2:56) (5:05 - 5:21)
Radio Station Interviews (complete track)
Friend Of The Devil (9:01 - 11:30 post song tuning)

Soundboard 2
shnid = 32876

"Bertha Remaster Series"

Bertha Remaster of the PreFM Source (shn id 13948)

SBD(PreFM) > MR>DAT > CDA > Wav(EAC) > SHN > DAW(Bertha) > Audio DVD >
DVD Audio Extractor v.3.3.2 (audio files extracted prior to burning
to DVD disc) > 24/48 wav > downsampled to 44.1 wav with Wave Lab v.5.00a >
dithered from 24 to 16 bit depth with Wave Lab UV22 HR Plugin >
SBEs fixed with shntool v.2.0.3 (by set) > FLAC encoding with
FLAC Frontend v.1.7.1 Etree Edition, FLAC v.1.1.2 (level 8)
(2 discs flac, 3 discs audio)

Digitally Remastered by jashley@deadacated.com. Completed 3/3/2006.

The original source has a large amount of audio level compression applied.
I searched for a source without compression but was unable to find one.
I checked 5 different sourlces, including one on DAT that was obtained 14
years ago and it had the same compression signature.  This means the
audio level compression was applied a long time ago and all subsequent
copies have been derived from that source.

The audio level compression was corrected to the extent possible.

There is an irritating 6khz noise that exists throughout the original source.
This was removed on the Bertha Remaster making for a much more enjoyable
listening experience.

The complete PreFM was used for the Bertha Remaster, which means the same
defects, that exist in Me and My Uncle and Big Rivevr, remain.

Enjoy!
jay

Soundboard 3
from youtube video - no shnid
---------------------------------------------------------
- Mixed by kevtobin@yahoo.com
- FLAC conversion 13-MAR-2014 - Trader Little Helper
- Tagged 13-MAR-2014 - Tag&Rename
---------------------------------------------------------
Front
Left Channel SBD  -0db Bertha soundboard
Right Channel SBD -0db Bertha soundboard

Center
Mixed to mono -1db Miller soundboard

Surround
Left Channel -0db Video soundboard
Right Channel -0db Video soundboard

Sub/LFE
Mixed to mono -1db Video soundboard
--------------------------------------------------------------
More On DTS

Today's audio standards are moving towards multi-channel
sound, like DTS and Dolby Digital. While the Audio-CD
standard (Red Book) hasn't changed to accommodate these
new sound formats, it is still possible to go around the
specification and to put a 5.1 surround recording on a
regular Audio-CD. To play a DTS-Audio-CD you must connect
your DVD/CD player via a digital cable (optical or coaxial)
to your DTS Dolby-Digital receiver. It is not 100% sure
that your receiver will recognize a DTS-Audio CD, so the
first time you're trying to playback a DTS-Audio-CD you
must do a test to determine if it can. Begin with the
volume very low, start the disc and raise the volume
gradually. NEVER listen to a DTS-Audio-CD through the
analog audio outputs of your CD/DVD player.

Burning Instructions

Burn them the absolute same way as you would burn any
normal Audio-CD from FLAC files.

Brokedown House Production

    length     expanded size    cdr  WAVE problems  fmt   ratio  filename
     0:48.00        8467244 B   ---   --   -----    wav  1.0000  gd1978-11-24d1t01.wav
     6:23.05       67573004 B   ---   --   -----    wav  1.0000  gd1978-11-24d1t02.wav
    13:21.65      141449324 B   ---   --   -----    wav  1.0000  gd1978-11-24d1t03.wav
     2:56.59       31185212 B   ---   --   -----    wav  1.0000  gd1978-11-24d1t04.wav
     7:04.30       74864204 B   ---   --   -----    wav  1.0000  gd1978-11-24d1t05.wav
     9:09.08       96862460 B   ---   --   -----    wav  1.0000  gd1978-11-24d1t06.wav
     7:07.24       75379292 B   ---   --   -----    wav  1.0000  gd1978-11-24d1t07.wav
     9:03.06       95799356 B   ---   --   -----    wav  1.0000  gd1978-11-24d1t08.wav
     6:09.58       65228060 B   ---   --   -----    wav  1.0000  gd1978-11-24d1t09.wav
     5:22.27       56864348 B   ---   --   -----    wav  1.0000  gd1978-11-24d1t10.wav
     9:14.28       97791500 B   ---   --   -----    wav  1.0000  gd1978-11-24d2t01.wav
     4:24.53       46694300 B   ---   --   -----    wav  1.0000  gd1978-11-24d2t02.wav
     1:09.13       12202220 B   ---   --   -----    wav  1.0000  gd1978-11-24d2t03.wav
     4:21.06       46054556 B   ---   --   -----    wav  1.0000  gd1978-11-24d2t04.wav
     9:15.64       98052572 B   ---   --   -----    wav  1.0000  gd1978-11-24d2t05.wav
     9:38.32      102034508 B   ---   --   -----    wav  1.0000  gd1978-11-24d2t06.wav
    12:31.20      132523484 B   ---   --   -----    wav  1.0000  gd1978-11-24d3t01.wav
    12:46.59      135261212 B   ---   --   -----    wav  1.0000  gd1978-11-24d3t02.wav
     7:50.41       83004476 B   ---   --   -----    wav  1.0000  gd1978-11-24d3t03.wav
     6:33.42       69424028 B   ---   --   -----    wav  1.0000  gd1978-11-24d3t04.wav
     9:03.46       95893436 B   ---   --   -----    wav  1.0000  gd1978-11-24d3t05.wav
     8:54.37       94284668 B   ---   --   -----    wav  1.0000  gd1978-11-24d3t06.wav
     4:37.16       48900476 B   ---   --   -----    wav  1.0000  gd1978-11-24d3t07.wav
   167:46.64     1775793940 B                            1.0000  (23 files)



42e30e335d2f86858ec8e4b278941a9c *gd1978-11-24d1t01.flac
b7fe1ec0bfc2f1abe70d53fbe5a92636 *gd1978-11-24d1t02.flac
c3e1cd8efe14a205d1a92ea0e5f4b496 *gd1978-11-24d1t03.flac
32f55c852aba1113971955d781c54429 *gd1978-11-24d1t04.flac
f8bf18f9f16da48e94c8606c61d85a87 *gd1978-11-24d1t05.flac
e3a6b2032f7c7f2ca4909052812c5894 *gd1978-11-24d1t06.flac
1b160aac167a8c1f1ae87b675db70a59 *gd1978-11-24d1t07.flac
3ee189a68ec60cb8f9e860e0decdabd7 *gd1978-11-24d1t08.flac
d9d8670e2bddd0ff469536b507ce7688 *gd1978-11-24d1t09.flac
44840aa27516c82373126d164523d912 *gd1978-11-24d1t10.flac
46dcbf9124be9a1be4caa78778a3ce5d *gd1978-11-24d2t01.flac
753992aa6c1ebbd695ecfbad2a8d431c *gd1978-11-24d2t02.flac
cf04e6f930be3361e48692db43fd59c8 *gd1978-11-24d2t03.flac
528e42156bd192deaaa440ca83d0d08f *gd1978-11-24d2t04.flac
aee81778d530a48bb225220021f4a3a3 *gd1978-11-24d2t05.flac
8e3a6ac6c81f6a2597cdb6b1294fc45a *gd1978-11-24d2t06.flac
dc591c7fad7b5c9d8058ab5c8d456d10 *gd1978-11-24d3t01.flac
691621c6105ccec258cfa56876923d9b *gd1978-11-24d3t02.flac
81330eaffaf54bec9f03469923eb6209 *gd1978-11-24d3t03.flac
494ae4b989407cadf54cb20fed1fe05f *gd1978-11-24d3t04.flac
2e122bc023641586f1371d9b345b220b *gd1978-11-24d3t05.flac
ea4ba60e2a696976f8ad482382ed4fba *gd1978-11-24d3t06.flac
e1d57d20d25f43046a6312886ef83271 *gd1978-11-24d3t07.flac
ffp
gd1978-11-24d1t01.flac:c71aa597cd9bbabfe9e55623c580c2b5
gd1978-11-24d1t02.flac:74b1e3a77a530f9d3126a484248de2c4
gd1978-11-24d1t03.flac:2c0a87e11c3795077d9354083938d259
gd1978-11-24d1t04.flac:22d40913599a3d46deeb68f415df6e6a
gd1978-11-24d1t05.flac:9cd236f8f27089f73dcd23aed1962545
gd1978-11-24d1t06.flac:ac3b8042b739cf96e0ae724a62067b1d
gd1978-11-24d1t07.flac:1d1827586caea0cd2628a2a3697b2dfa
gd1978-11-24d1t08.flac:d53d0d37c88fae5354c8f935847efe31
gd1978-11-24d1t09.flac:d958e278cba68e582745239e238d3c43
gd1978-11-24d1t10.flac:33876071fbc59686422b3fb7edb1786b
gd1978-11-24d2t01.flac:af69a44f7deeb76bdcdf4db1a5bb7a0b
gd1978-11-24d2t02.flac:678906210188960647710466b4374422
gd1978-11-24d2t03.flac:bd618d743548e70ba13f08ddf0edc7a1
gd1978-11-24d2t04.flac:2f75942725b5c84757d6280f5cb37447
gd1978-11-24d2t05.flac:c4ea099a200dcfcca20c19394a73e96d
gd1978-11-24d2t06.flac:0d77db228921f80689f90bf8f06162f3
gd1978-11-24d3t01.flac:0714e847106d82cb7f3b2a08fd202711
gd1978-11-24d3t02.flac:6de96e4d64bf2d2681f09e44c017f7ed
gd1978-11-24d3t03.flac:c266a0c9f25db8c1d72fff0dccea293a
gd1978-11-24d3t04.flac:e93ae7675c0f399d05d9927e9a0e39df
gd1978-11-24d3t05.flac:fcd9a2ce77dda2d345d7a62ab5141313
gd1978-11-24d3t06.flac:72dcbff12ab63fd646d66ec2c40185d3
gd1978-11-24d3t07.flac:7381fa715f31b74ca31bc806b05d9d5b

Comments
etreedb.org
For administrative requests email contact@etreedb.org
This website written by Tom H Anderson and maintained by the etreedb.org community.

Cached: Wed, 16 Oct 2019 17:33:28 EDT