Grateful Dead 05/11/78
Springfield Civic Center, Springfield, MA
Source # 127386
Entered by Gary Field
Checksums flac-md5 , ffp
Disc Counts 0 / 0
Media Size Compressed: 979.66 MB (1027248863 bytes)
Uncompressed: 1.72 GB (1842929428 bytes)
Date Circulated
Date Added
03/17/2014
03/17/2014
Source Summary
flac16; 3 Source Matrix by Dusborne; Soundboard (shnid:16333) SBD -> Rm -> Cass -> Dat -> CD -> Sonic Solutions -> CD; Audience (shnid:06317) fob audience recording with a sbd patch nak mics > sony d5 > master audience cass > dat's; dat@48>sek'd prodif+ card (resampled to 44.1)>cd wave>mkw; and Audience (shnid:18658) **This source was used for Drums -> Space only Source: Recorded by Moore, Maisner, and Spitalny; Nak 700s> Nak 550> Sony TC-152 from the floor just to the right of the center Lineage: AUDMC played back on Nak Dragon> ART DI/O> Egosys Waveterminal 2496> Cool Edit 2000> Feurio/mkwACT
Grateful Dead
May 11,1978
Springfield Civic Center
Springfield, MA

3 Source Matrix

Soundboard (shnid:16333)
--------------------------------------------------------------------------------
gd78-05-11.sbd.miller.16333.sbeok.flac16

SBD -> Rm -> Cass -> Dat -> CD -> Sonic Solutions -> CD
3 Discs Audio / 2 Discs SHN

Charlie Miller
charliemiller87@earthlink.net

Flac encoding notes:
All processing with Trader's Little Helper
Shn - st5 generated
Shn > Flac ( level 8 )
Flac - st5 generated and matched to Shn st5
B. Proctor 8-10-08

Audience (shnid:06317)
-------------------------------------------------------------------------------
gd78-05-11.06317.fob-nak.vernon.sbeok.t-flac16

fob audience recording with a sbd patch
nak mics > sony d5 > master audience cass > dat's
dat@48>sek'd prodif+ card (resampled to 44.1)>cd wave>mkw
no dae, no normalizing, no eq or processing of any kind

source dats:matt vernon
dat>shn transfer by dale shepherd

drums and space were mostly cut from the dat.
the missing section of drums was patched from the
circulating soundboard using cool edit 2000 by matt vernon

on the dat that was used for the transfer, it appears that johnny b
goode was patched in from an inferior aud source.

Flac encoding notes:
All processing with Trader's Little Helper
Shn - st5 generated
Shn > Flac ( level 8 )
Flac - st5 generated and matched to Shn st5
B. Proctor 2-04-11

Audience (shnid:18658) ***This source was used for Drums -> Space only***
-------------------------------------------------------------------------------
gd78-05-11.moore.minches.18658.sbeok.shnf

Source: ** Recorded by Moore, Maisner, and Spitalny; Nak 700s> Nak 550> Sony TC-152
from the floor just to the right of the center
Lineage: AUDMC played back on Nak Dragon> ART DI/O> Egosys Waveterminal 2496>
Cool Edit 2000> Feurio/mkwACT by David Minches
Info file by Matt Vernon



--------------------------------------------------------------------------------
---Thank you Charlie Miller for your work on the SBD.
---Thank you Jerry Moore, Steve Maizner and Spitalny for recording the show.
---Thank you Matt Vernon for your work on the AUD sources.
---Thank you Dale Shepherd for your AUD transfer.(shnid:06317)
---Thank you David Minches for your work on the AUD.(shnid:18658)
---Thank you XJ32 for the art work.
---Thank you Germain for your advice, encouragement, guidance and seeding.

Matrix by dusborne

03-12-2014
-------------------------------------------------------------------------------

Set 1

101 - gd78-05-11s1t01 - Cold Rain & Snow
102 - gd78-05-11s1t02 - Beat It on Down the Line
103 - gd78-05-11s1t03 - Friend of the Devil
104 - gd78-05-11s1t04 - Looks Like Rain
105 - gd78-05-11s1t05 - Loser
106 - gd78-05-11s1t06 - Mexicali Blues ->
107 - gd78-05-11s1t07 - Mama Tried
108 - gd78-05-11s1t08 - Tennessee Jed
108 - gd78-05-11s1t09 - New Minglewood Blues
109 - gd78-05-11s1t10 - Peggy-O
110 - gd78-05-11s1t11 - Lazy Lightning ->
111 - gd78-05-11s1t12 - Supplication

Set 2

201 - gd78-05-11s2t01 - Tuning
202 - gd78-05-11s2t02 - Scarlet Begonias ->
203 - gd78-05-11s2t03 - Fire on the Mountain
204 - gd78-05-11s2t04 - Dancing in the Street ->
205 - gd78-05-11s2t05 - Drums ->
206 - gd78-05-11s2t06 - Space ->
207 - gd78-05-11s2t07 - Not Fade Away ->
208 - gd78-05-11s2t08 - Stella Blue ->
209 - gd78-05-11s2t09 - Around & Around

Encores
210 - gd78-05-11s2t10 - Werewolves of London
211 - gd78-05-11s2t11 - Johnny B. Goode
--------------------------------------------------------------------------------

Tagging notes:
Show information is embedded within the header of each flac file.
It will display on any player capable of directly playing flac files.
If converted to wav during processing, all tags will be stripped,
however audio data will remain unaffected.
If you must transcode to a lossy format, do so directly Flac > Lossy.
Use st5 to validate audio integrity.
Md5 values will change if tagging is altered.
Dave Usborne 03-12-2014
--------------------------------------------------------------------------------
length     expanded size    cdr  WAVE problems  fmt   ratio  filename
     6:41.58       70872860 B   ---   --   ---xx   flac  0.5654  gd78-05-11s1t01.flac
     3:36.33       38180060 B   ---   --   ---xx   flac  0.5702  gd78-05-11s1t02.flac
     9:54.33      104859260 B   ---   --   ---xx   flac  0.5347  gd78-05-11s1t03.flac
     9:46.31      103443356 B   ---   --   ---xx   flac  0.5300  gd78-05-11s1t04.flac
     8:10.26       86497196 B   ---   --   ---xx   flac  0.5494  gd78-05-11s1t05.flac
     3:41.68       39144380 B   ---   --   ---xx   flac  0.5765  gd78-05-11s1t06.flac
     3:04.01       32459996 B   ---   --   ---xx   flac  0.5741  gd78-05-11s1t07.flac
     9:12.34       97452812 B   ---   --   ---xx   flac  0.5591  gd78-05-11s1t08.flac
     5:49.12       61591868 B   ---   --   ---xx   flac  0.5767  gd78-05-11s1t09.flac
     7:48.09       82576412 B   ---   --   ---xx   flac  0.5244  gd78-05-11s1t10.flac
     3:19.25       35162444 B   ---   --   ---xx   flac  0.5620  gd78-05-11s1t11.flac
     6:34.23       69555740 B   ---   --   ---xx   flac  0.5732  gd78-05-11s1t12.flac
     0:45.47        8048588 B   ---   --   ---xx   flac  0.4748  gd78-05-11s2t01.flac
     9:26.68      100002380 B   ---   --   ---xx   flac  0.5593  gd78-05-11s2t02.flac
     9:05.11       96163916 B   ---   --   ---xx   flac  0.5717  gd78-05-11s2t03.flac
    15:06.49      159933692 B   ---   --   ---xx   flac  0.5774  gd78-05-11s2t04.flac
    20:24.54      216040652 B   ---   --   ---xx   flac  0.5445  gd78-05-11s2t05.flac
     0:50.32        8895308 B   ---   --   ---xx   flac  0.5255  gd78-05-11s2t06.flac
     9:38.07      101975708 B   ---   --   ---xx   flac  0.5685  gd78-05-11s2t07.flac
     8:55.17       94414028 B   ---   --   ---xx   flac  0.5200  gd78-05-11s2t08.flac
     9:45.09      103215212 B   ---   --   ---xx   flac  0.5741  gd78-05-11s2t09.flac
     8:19.27       88087148 B   ---   --   ---xx   flac  0.5762  gd78-05-11s2t10.flac
     4:11.34       44356412 B   ---   --   ---xx   flac  0.5970  gd78-05-11s2t11.flac
   174:07.33     1842929428 B                            0.5574  (23 files)


ff5e5d36de9e1fff3dd1f7f8e20be425 *gd78-05-11s1t01.flac
8946daecc92417971eb5f176a5226ff2 *gd78-05-11s1t02.flac
b2e23cc20cfa78125fe77506cf5cd4d1 *gd78-05-11s1t03.flac
c84a471a9172d87a2f8f1fd857e040bf *gd78-05-11s1t04.flac
ae3bf940101562215f55c0cf844a2922 *gd78-05-11s1t05.flac
f41a9016015eb5a95cff7ded520e51e5 *gd78-05-11s1t06.flac
7344e91270edbb07d078f8f498fae81c *gd78-05-11s1t07.flac
cd5d009bebcc9854c956db4b5ec27b29 *gd78-05-11s1t08.flac
54828c6e7e759301360739974c07af7a *gd78-05-11s1t09.flac
f03277fd5ded6a37afab5689b340679a *gd78-05-11s1t10.flac
b018a4a65db9e77b6ef34a382d16b036 *gd78-05-11s1t11.flac
9a070ee16c5106bece431e563b6db6d8 *gd78-05-11s1t12.flac
f1bd6c468e02641c245fedceb1726a3c *gd78-05-11s2t01.flac
2f56bb21278558d17a510593917dd1d3 *gd78-05-11s2t02.flac
993550662137a61e035a8211f4eba5d3 *gd78-05-11s2t03.flac
d4a06cbcd168dca817538637adb7a543 *gd78-05-11s2t04.flac
21bb589e53b401cf1ee8d3c9c4dacb84 *gd78-05-11s2t05.flac
b5b369653935bc212382b26c42984116 *gd78-05-11s2t06.flac
d755385849600b416e7c990d9c2166fd *gd78-05-11s2t07.flac
fae98b297b5f2b911cd14e94032a4b34 *gd78-05-11s2t08.flac
af010ddf703ed59c41171025b384e7e0 *gd78-05-11s2t09.flac
0b30d9b09f26158d1702762cb17a9217 *gd78-05-11s2t10.flac
54276499bafa0ba9296a10177c952f50 *gd78-05-11s2t11.flac
ffp
gd78-05-11s1t01.flac:c8508a5286e4c0e8d59f875a1324dbef
gd78-05-11s1t02.flac:78cfcc7629e585dc529d0794117a60d4
gd78-05-11s1t03.flac:270ea6481d9fd77382f785e8262d7852
gd78-05-11s1t04.flac:7cc90198f50f65db31045cbb4b3cba0c
gd78-05-11s1t05.flac:32188b2e5246742be811f2a89e5cec6d
gd78-05-11s1t06.flac:fc6e1ec0e6357a3fa35346da6a2392ae
gd78-05-11s1t07.flac:aaf7fad92e465f64937e5385189fce0e
gd78-05-11s1t08.flac:3b42069450202e8ee17b09ce7e5471ed
gd78-05-11s1t09.flac:260fd4b011d499348988f26532ffbe4e
gd78-05-11s1t10.flac:8b6f5f56a2a7ea8cf2bd8feb3d26dd15
gd78-05-11s1t11.flac:04c4567af3bf854c1359753c1bda357f
gd78-05-11s1t12.flac:177cbc6a06a7ea0a42a7183f20af38ae
gd78-05-11s2t01.flac:834bedbe7e805e1355768911a7563af5
gd78-05-11s2t02.flac:40e2cb280ca50f4383774fbe3128bd5a
gd78-05-11s2t03.flac:e251356ccfcb958a20080665aa30b07c
gd78-05-11s2t04.flac:a39cda5bee33e5cdf9c80d885e632e3b
gd78-05-11s2t05.flac:c01476f15aa37e4cec2902b86a003b51
gd78-05-11s2t06.flac:5c65d5fa2aaab5ed28ccd8e5110c6f33
gd78-05-11s2t07.flac:486e89341dec57cd1efaed1b54ab40fb
gd78-05-11s2t08.flac:5ccb75f9b40c0da641b4ec18cea69060
gd78-05-11s2t09.flac:55c55fdf03ee0de0b19d1c77bbeddca4
gd78-05-11s2t10.flac:861338dd69602d0ae82a28e4a124de29
gd78-05-11s2t11.flac:6f4dabe18a500cb5daa15224f40ede30

Comments
etreedb.org
For administrative requests email contact@etreedb.org
This website written by Tom H Anderson and maintained by the etreedb.org community.

Cached: Tue, 17 Sep 2019 09:23:40 EDT