Larry Keel & Natural Bridge 12/20/13
Isis Restaurant & Music Hall, Asheville, NC
Source # 127411
Entered by ziko
Checksums ffp
Disc Counts 0 / 0
Media Size Compressed: 872 MB (914358272 bytes)
Uncompressed: 1.24 GB (1332500740 bytes)
Date Circulated
Date Added

03/20/2014
Source Summary
source: Neumann km140 (nos) > Midas Pro2c Series Preamps > Lunatec V3 (A/D only) > Edirol R-44 @ 24/48 location: fob,dfc hung from the ceiling 12.5' high, 20' from stage transfer: SDHC card > PC > wavelab 6.1 > cd wave > traders little helper (flac level 8) Fades, Crystal Resampler (high), & dither w/ iZotope Ozone 5 done in wavelab 6.1 *16bit/44.1khz fileset* recorded and transferred by Gordon Wilson A Team Dirty South Recording
Larry Keel & Natural Bridge
12/20/2013
Isis Restaurant & Music Hall
Asheville, NC

source:   Neumann km140 (nos) > Midas Pro2c Series Preamps > Lunatec V3 (A/D only) > Edirol R-44 @ 24/48
location: fob,dfc hung from the ceiling 12.5' high, 20' from stage
transfer: SDHC card > PC > wavelab 6.1 > cd wave > traders little helper (flac level 8)

Fades, Crystal Resampler (high), & dither w/ iZotope Ozone 5 done in wavelab 6.1

*16bit/44.1khz fileset*

recorded and transferred by Gordon Wilson

A Team Dirty South Recording

01. Intro
02. Instrumental >
03. Soundcheck
04. How Can It Be Wrong If It Grows Wild
05. Love
06. I'm No Doctor
07. Flora, the Lily of the West
08. Miles & Miles
09. Pre-Road Downs
10. Memories
11. The Cuckoo
12. Have Some Fun >
13. Lil Miss Can't Be Wrong
14. Back In The Goodle Days >
15. B Funk
16. Sweet Love
17. Magnificent
18. Jenny On The Railroad *
19. Hot Dang Boys *
20. Christmas Time's a Coming **
21. Jingles Bells **
22. Silent Night **

Encore:
23. First Girl I Loved ^
24. Culpepper tease > Soldiers' Joy ^

*  w/ Bobby Britt
** w/  Robert Greer, Bobby Miller, Jake Hopping, & Bobby Britt
^  Larry Solo

HUGE thanks to T Brockenbrough for all his help & to Brad Miller for the setlist help!



shntool 3.0.4
Copyright (C) 2000-2007 Jason Jordan

    length     expanded size    cdr  WAVE problems  fmt   ratio  filename
     1:07.62       11964668 B   ---   --   ---xx   flac  1.0667  keel2013-12-20t01.flac
     1:52.67       19914428 B   ---   --   ---xx   flac  0.8877  keel2013-12-20t02.flac
     3:49.26       40456796 B   ---   --   ---xx   flac  0.7771  keel2013-12-20t03.flac
     3:49.22       40447388 B   ---   --   ---xx   flac  0.7395  keel2013-12-20t04.flac
     4:23.72       46562588 B   ---   --   ---xx   flac  0.7266  keel2013-12-20t05.flac
     6:23.70       67725884 B   ---   --   ---xx   flac  0.6231  keel2013-12-20t06.flac
     4:57.23       52444940 B   ---   --   ---xx   flac  0.6991  keel2013-12-20t07.flac
     5:29.20       58082684 B   ---   --   ---xx   flac  0.6841  keel2013-12-20t08.flac
     4:11.31       44349356 B   ---   --   ---xx   flac  0.7322  keel2013-12-20t09.flac
     5:47.66       61366076 B   ---   --   ---xx   flac  0.6307  keel2013-12-20t10.flac
     6:37.43       70131980 B   ---   --   ---xx   flac  0.6836  keel2013-12-20t11.flac
     8:58.03       94910300 B   ---   --   ---xx   flac  0.6280  keel2013-12-20t12.flac
     3:43.28       39403100 B   ---   --   ---xx   flac  0.7459  keel2013-12-20t13.flac
     5:38.41       59719676 B   ---   --   ---xx   flac  0.6709  keel2013-12-20t14.flac
     3:34.57       37883708 B   ---   --   ---xx   flac  0.7545  keel2013-12-20t15.flac
     9:24.17       99529628 B   ---   --   ---xx   flac  0.6020  keel2013-12-20t16.flac
     8:42.32       92156108 B   ---   --   ---xx   flac  0.6550  keel2013-12-20t17.flac
    10:54.65      115518524 B   ---   --   ---xx   flac  0.6162  keel2013-12-20t18.flac
     5:03.73       53620940 B   ---   --   ---xx   flac  0.6958  keel2013-12-20t19.flac
     3:53.62       41247068 B   ---   --   ---xx   flac  0.7470  keel2013-12-20t20.flac
     8:42.52       92203148 B   ---   --   ---xx   flac  0.6173  keel2013-12-20t21.flac
     4:37.36       48947516 B   ---   --   ---xx   flac  0.6325  keel2013-12-20t22.flac
     4:08.71       43914236 B   ---   --   ---xx   flac  0.7166  keel2013-12-20t23.flac
   125:53.64     1332500740 B                            0.6754  (23 files)


ffp
keel2013-12-20t01.flac:698d4a45b6c3c71d77d6a25ec1886cf5
keel2013-12-20t02.flac:5ffe8e889239c738ff81825b36c66681
keel2013-12-20t03.flac:971af4568801dbd2deb0b581f885d7a9
keel2013-12-20t04.flac:e27ff23e61a4648181a0f4d5af963b85
keel2013-12-20t05.flac:0d080f9ef0c9b83f3cab51b422fb3edc
keel2013-12-20t06.flac:c6ed6b2b3117c46e78a86b16a084ce19
keel2013-12-20t07.flac:0118dbce8ce174bfb5c0eca787bc7e82
keel2013-12-20t08.flac:b9cdca17268ce3f1b679d93d55507a5d
keel2013-12-20t09.flac:0e9f60a0761376e5f62047801834a4ce
keel2013-12-20t10.flac:a371cfa28d9ac0e324b058ae4ce7c876
keel2013-12-20t11.flac:3860738b503de56ce27570d01b6d7636
keel2013-12-20t12.flac:7c6bae16a28e68ef16219a9cae372379
keel2013-12-20t13.flac:0def533ccd8fea6b5e69bfb21d912050
keel2013-12-20t14.flac:b0182039865ee89ac2024c2ca595bb22
keel2013-12-20t15.flac:9bb28d9aaced96493df976e6c8187277
keel2013-12-20t16.flac:4a3965f849895bab321503f24415d93a
keel2013-12-20t17.flac:02ca35c6aa5c05e6ff212bddab9ae323
keel2013-12-20t18.flac:ceb3b70a6c313b961ed884d54c14391f
keel2013-12-20t19.flac:0c136334afa655cbe6839b16a7c0d4b5
keel2013-12-20t20.flac:20653334020edc22fe9570a3056c5f3b
keel2013-12-20t21.flac:8d4d18fb7c6e9950769dba45ddf724fd
keel2013-12-20t22.flac:974f6331b85e1fc920ecababa8e69147
keel2013-12-20t23.flac:4ef454c44c39ed3afa610e6c893668a0
keel2013-12-20t24.flac:eee4277a05ae04e56bab205b7f28e284

Comments
Other Sources (comments)
source: post show... (0)
Date User Comment
etreedb.org
For administrative requests email contact@etreedb.org
This website written by Tom H Anderson and maintained by the etreedb.org community.

Cached: Mon, 27 May 2024 12:26:35 EDT