South Memphis String Band 04/07/10
The Grey Eagle, Asheville, NC
Source # 128907
Entered by vanark
Checksums ffp
Disc Counts 0 / 0
Media Size
Date Circulated
Date Added
04/12/2010
05/29/2014
Download Text | Download Zip
Other Sources
Source Summary
Neumann ak40 > lc3 > km100 (nos) > xlr > Lunatec V3 > Edirol R-44 @ 24/48
SBD > 1/4" stereo outs > Edirol R-44 @ 24/48
South Memphis String Band
04/07/2010
The Grey Eagle
Asheville, NC

source:      post show matrix
aud source:  Neumann ak40 > lc3 > km100 (nos) > xlr > Lunatec V3 > Edirol R-44 @ 24/48
location:    fob,dfc clamped to rafters @ about 9' high
sbd source:  SBD > 1/4" stereo outs > Edirol R-44 @ 24/48
transfer:    SDHC card > PC > wavelab 6.1 > cd wave > traders little helper (flac level 8)

all editing (matrix, fades, Crystal Resampler (high), dither w/ iZotope Ozone 4) done in wavelab 6.1

*16bit/44.1khz fileset*

recorded and transferred by Gordon Wilson

A Team Dirty South Recording


01. Intro/Tuning
02. Jesse James
03. Dixie Darling
04. Worry 'bout Your Own Backyard
05. Hard Travelin'
06. Old Hen
07. Bootlegger's Blues
08. Mobile Line (France Blues)
09. Ben Dewberrys Final Run
10. Bloody Bill Anderson
11. Mississippi Boll Weevil >
12. Sittin' On Top Of The World
13. Money Never Do Run Out
14. Let Your Light Shine On Me
15. Tallacatcha


co-bill with Backyard Tire Fire


shntool 3.0.4
Copyright (C) 2000-2007 Jason Jordan <shnutils@freeshell.org>

    length     expanded size    cdr  WAVE problems  fmt   ratio  filename
     1:27.13       15377420 B   ---   --   ---xx   flac  0.4070  smsb2010-04-07t01.flac
     4:58.60       52708364 B   ---   --   ---xx   flac  0.4706  smsb2010-04-07t02.flac
     3:37.21       38328236 B   ---   --   ---xx   flac  0.4899  smsb2010-04-07t03.flac
     3:21.73       35628140 B   ---   --   ---xx   flac  0.5142  smsb2010-04-07t04.flac
     5:06.12       54006668 B   ---   --   ---xx   flac  0.5575  smsb2010-04-07t05.flac
     4:11.63       44424620 B   ---   --   ---xx   flac  0.5266  smsb2010-04-07t06.flac
     5:19.41       56368076 B   ---   --   ---xx   flac  0.4892  smsb2010-04-07t07.flac
     4:39.55       49345004 B   ---   --   ---xx   flac  0.5213  smsb2010-04-07t08.flac
     5:31.50       58506044 B   ---   --   ---xx   flac  0.4697  smsb2010-04-07t09.flac
     5:16.70       55907084 B   ---   --   ---xx   flac  0.5054  smsb2010-04-07t10.flac
     2:35.69       27504332 B   ---   --   ---xx   flac  0.5547  smsb2010-04-07t11.flac
     1:58.59       20954012 B   ---   --   ---xx   flac  0.4901  smsb2010-04-07t12.flac
     3:43.42       39436028 B   ---   --   ---xx   flac  0.5267  smsb2010-04-07t13.flac
     5:27.66       57838076 B   ---   --   ---xx   flac  0.4716  smsb2010-04-07t14.flac
     4:03.59       43004012 B   ---   --   ---xx   flac  0.5159  smsb2010-04-07t15.flac
    61:21.03      649336116 B                            0.5028  (15 files)


ffp
smsb2010-04-07t01.flac:510f80aa0de925ffac3c7fcb3943775e
smsb2010-04-07t02.flac:3ee6cc2f4e855ef200d4a2fa7aacb4bf
smsb2010-04-07t03.flac:7ac5292c21ca673fabf4a37754dcbb3a
smsb2010-04-07t04.flac:36cae5015b96619962edfeb8fdd41ef0
smsb2010-04-07t05.flac:be017a09544645998c4ff84d7a903d28
smsb2010-04-07t06.flac:8f02b568749c16e89693b12a25c9af7f
smsb2010-04-07t07.flac:31d0d874212d81dacd14e406440cefbc
smsb2010-04-07t08.flac:28447d1aeda2acdae642a9527b5a6169
smsb2010-04-07t09.flac:2f5b2ee7d259beae2a3163041095789d
smsb2010-04-07t10.flac:342788a2abe3b1582f51df3c33426f17
smsb2010-04-07t11.flac:b438d5f30fb77e961db1b7a20075cb69
smsb2010-04-07t12.flac:008902419d858cc677243033d70cab7c
smsb2010-04-07t13.flac:53cdbe1c9edf72fb36bfbd5df79a22a6
smsb2010-04-07t14.flac:a2f276abbbd3b45188c1af24f41b26e0
smsb2010-04-07t15.flac:82ec05bb909c63e828bffae0cd089ae8

Comments
Date User Comment
etreedb.org
For administrative requests email contact@etreedb.org
This website written by Tom H Anderson and maintained by the etreedb.org community.

Cached: Tue, 24 Nov 2020 01:23:48 EST