Michael Franti & Spearhead 05/31/09
Mountain Jam, Hunter Mountain, NY
Source # 129712
Entered by matthew
Checksums ffp
Disc Counts 0 / 0
Media Size
Date Circulated
Date Added
06/02/2009
06/03/2014
Download Text | Download Zip
Other Sources
Source Summary
Schoeps CCM4V'S(din) > Lunatec V2 > Sound Devices 722 (24/48)
Michael Franti and Spearhead
Mountain Jam
Hunter Mountain, New York
5/31/2009

Source: Schoeps CCM4V'S(din) > Lunatec V2 > Sound Devices 722 (24/48)
Location: FOB/DFC/KFC/ZFC/AARP 50' From Stage, 6 1/2 ' High
DSP: Sound Devices 722 > Sound Forge 9.0 > CD Wave > flac(16)
Recorded By: Z-Man
Seeded By: Z-Man

Disc I

Introduction For Cherine Anderson
Redemption Song
?
Michael Franti and Speerhead:
Everyone Deserves Music >
Hello Hello >
Time To Go Home >
*Rude Boys Are Back In Town >
*Jamaica, Jamaica
Tell Me Lies >
*All I Want Is You >
*Little Bit Of Rhythm

Disc II

That's The Sound Of Sunshine Goin' Down
Anytime
Never Too Late >
Rebel Rockers >
Everybody On The Move >
Walk And Don't Look Back >
Casey Jones >
*Walk And Don't Look Back
*I've Got Love For You
*I Love You

* With Cherine Anderson on Vocals

Show Notes:

There was constant wind during this set. It is everpresent on the recording but still listenable.

Flac fingerprint

michaelfranti2009-05-31d01t01.flac:2ed0cc4825bc37d0fe576ccb21f4f986
michaelfranti2009-05-31d01t02.flac:e3a91de791fba1c883390f5358cb8077
michaelfranti2009-05-31d01t03.flac:249710dee32777a450bf2de9cb6c52df
michaelfranti2009-05-31d01t04.flac:8f2b6cc07c754c3a4789471f13edc6c0
michaelfranti2009-05-31d01t05.flac:09b317a41e807edec7d680cfa81b98dd
michaelfranti2009-05-31d01t06.flac:f0e361285a17a5150b7325a744aec2a7
michaelfranti2009-05-31d01t07.flac:012ebef5e152f5074d8d9a5bfa7e40a7
michaelfranti2009-05-31d01t08.flac:a86ff2a3d8b17388d14096cd09a5b4a7
michaelfranti2009-05-31d01t09.flac:35d319e83cfee42980b73d913083c8f9
michaelfranti2009-05-31d01t10.flac:93c28d184d7fa962135f2079fc1a7e77
michaelfranti2009-05-31d01t11.flac:4ef6355a9b7992b5ad8b17334a4f1e9a
michaelfranti2009-05-31d02t01.flac:6d2cb8d4ef9b71398763ee86df41e393
michaelfranti2009-05-31d02t02.flac:62599d9eb3ce01db29fd1c4ac795be9f
michaelfranti2009-05-31d02t03.flac:43a5ffee2a72b3c7b4ff820b6f7f9dda
michaelfranti2009-05-31d02t04.flac:820a62cc1fcfd120785858052f062441
michaelfranti2009-05-31d02t05.flac:adb295e9b11ee418ddca2703715e8244
michaelfranti2009-05-31d02t06.flac:d0e850ebf06f32e1698d080790d1baa6
michaelfranti2009-05-31d02t07.flac:c2040e99df757f3f961c9ed0b80f8bbc
michaelfranti2009-05-31d02t08.flac:1aff6ae77d2933a4119c8d73f670bfca
michaelfranti2009-05-31d02t09.flac:3d03ca782710afde075ae0155bba2e7e
michaelfranti2009-05-31d02t10.flac:dddd3f83b7993e220488867fc2d97af4

shntool

    length     expanded size    cdr  WAVE problems  fmt   ratio  filename
     0:41.34        7312412 B   ---   --   ---xx   flac  0.3922  michaelfranti2009-05-31d01t01.flac
     3:14.57       34355708 B   ---   --   ---xx   flac  0.4088  michaelfranti2009-05-31d01t02.flac
     4:12.50       44570444 B   ---   --   ---xx   flac  0.4381  michaelfranti2009-05-31d01t03.flac
     5:32.31       58637756 B   ---   --   ---xx   flac  0.4810  michaelfranti2009-05-31d01t04.flac
     4:23.65       46546124 B   ---   --   ---xx   flac  0.4603  michaelfranti2009-05-31d01t05.flac
     3:43.19       39381932 B   ---   --   ---xx   flac  0.4845  michaelfranti2009-05-31d01t06.flac
     3:25.11       36187916 B   ---   --   ---xx   flac  0.4697  michaelfranti2009-05-31d01t07.flac
     1:35.53       16882700 B   ---   --   ---xx   flac  0.4918  michaelfranti2009-05-31d01t08.flac
     3:40.02       38812748 B   ---   --   ---xx   flac  0.4139  michaelfranti2009-05-31d01t09.flac
     6:30.73       68967740 B   ---   --   ---xx   flac  0.4263  michaelfranti2009-05-31d01t10.flac
     4:14.73       44977340 B   ---   --   ---xx   flac  0.4989  michaelfranti2009-05-31d01t11.flac
     8:11.06       86626556 B   ---   --   ---xx   flac  0.3614  michaelfranti2009-05-31d02t01.flac
     5:59.72       63496988 B   ---   --   ---xx   flac  0.3400  michaelfranti2009-05-31d02t02.flac
     4:52.35       51591164 B   ---   --   ---xx   flac  0.4676  michaelfranti2009-05-31d02t03.flac
     3:24.22       36037388 B   ---   --   ---xx   flac  0.5307  michaelfranti2009-05-31d02t04.flac
     4:06.22       43446188 B   ---   --   ---xx   flac  0.4988  michaelfranti2009-05-31d02t05.flac
     2:07.20       22449884 B   ---   --   ---xx   flac  0.4892  michaelfranti2009-05-31d02t06.flac
     0:48.30        8537804 B   ---   --   ---xx   flac  0.4345  michaelfranti2009-05-31d02t07.flac
     1:21.02       14293148 B   ---   --   ---xx   flac  0.4664  michaelfranti2009-05-31d02t08.flac
     8:56.55       94679804 B   ---   --   ---xx   flac  0.3725  michaelfranti2009-05-31d02t09.flac
     8:01.27       84911948 B   ---   --   ---xx   flac  0.4544  michaelfranti2009-05-31d02t10.flac
    89:04.09      942703692 B                            0.4364  (21 files)





ffp
michaelfranti2009-05-31d01t01.flac:2ed0cc4825bc37d0fe576ccb21f4f986
michaelfranti2009-05-31d01t02.flac:e3a91de791fba1c883390f5358cb8077
michaelfranti2009-05-31d01t03.flac:249710dee32777a450bf2de9cb6c52df
michaelfranti2009-05-31d01t04.flac:8f2b6cc07c754c3a4789471f13edc6c0
michaelfranti2009-05-31d01t05.flac:09b317a41e807edec7d680cfa81b98dd
michaelfranti2009-05-31d01t06.flac:f0e361285a17a5150b7325a744aec2a7
michaelfranti2009-05-31d01t07.flac:012ebef5e152f5074d8d9a5bfa7e40a7
michaelfranti2009-05-31d01t08.flac:a86ff2a3d8b17388d14096cd09a5b4a7
michaelfranti2009-05-31d01t09.flac:35d319e83cfee42980b73d913083c8f9
michaelfranti2009-05-31d01t10.flac:93c28d184d7fa962135f2079fc1a7e77
michaelfranti2009-05-31d01t11.flac:4ef6355a9b7992b5ad8b17334a4f1e9a
michaelfranti2009-05-31d02t01.flac:6d2cb8d4ef9b71398763ee86df41e393
michaelfranti2009-05-31d02t02.flac:62599d9eb3ce01db29fd1c4ac795be9f
michaelfranti2009-05-31d02t03.flac:43a5ffee2a72b3c7b4ff820b6f7f9dda
michaelfranti2009-05-31d02t04.flac:820a62cc1fcfd120785858052f062441
michaelfranti2009-05-31d02t05.flac:adb295e9b11ee418ddca2703715e8244
michaelfranti2009-05-31d02t06.flac:d0e850ebf06f32e1698d080790d1baa6
michaelfranti2009-05-31d02t07.flac:c2040e99df757f3f961c9ed0b80f8bbc
michaelfranti2009-05-31d02t08.flac:1aff6ae77d2933a4119c8d73f670bfca
michaelfranti2009-05-31d02t09.flac:3d03ca782710afde075ae0155bba2e7e
michaelfranti2009-05-31d02t10.flac:dddd3f83b7993e220488867fc2d97af4

Comments
Date User Comment
etreedb.org
For administrative requests email contact@etreedb.org
This website written by Tom H Anderson and maintained by the etreedb.org community.

Cached: Mon, 22 Apr 2024 10:46:00 EDT