Band Of Horses 04/28/13
Ryman Auditorium, Nashville, TN
Source # 129943
Entered by ziko
Checksums ffp
Disc Counts 0 / 0
Media Size
Date Circulated
Date Added
04/30/2013
06/06/2014
Download Text | Download Zip
Other Sources
Source Summary
Source: Schoeps MK4V > KC5 > CMC6 > Sound Devices 744T (24bit/48kHz) Location: Balcony / SROC / Rail Transfer: 744T > HDD > Wavelab 6.1 (DSP/Crystal Re-Sampler/MBit+ Dither/Fades) > CDWave > TLH > FLAC (8)
Band of Horses
2013-04-28
Ryman Auditorium
Nashville, TN


***16bit Source***


Source: Schoeps MK4V > KC5 > CMC6 > Sound Devices 744T (24bit/48kHz)
Location: Balcony / SROC / Rail
Transfer: 744T > HDD > Wavelab 6.1 (DSP/Crystal Re-Sampler/MBit+ Dither/Fades) > CDWave > TLH > FLAC (8)
Taped, Transferred & Seeded by Martin Medley


Set 1: (Acoustic)

01. Intro
02. St. Augustine
03. No One's Gonna Love You
04. On My Way Back Home
05. Factory
06. A Song For You
07. Older
08. Detlef Schrempf
09. Neighbor


Set 2: (Electric)

01. Intro
02. For Annabelle
03. The General Specific
04. NW Apt.
05. Is There A Ghost
06. Feud
07. Blue Beard
08. Infinite Arms
09. Marry Song
10. Powderfinger
11. The Great Salt Lake
12. Islands On The Coast
13. Weed Party
14. Long Vows
15. Part One
16. Everything's Gonna Be Undone
17. Laredo
18. No One's Gonna Love You
19. The Funeral

Encore:

20. Electric Music



shntool info:

    length     expanded size    cdr  WAVE problems  fmt   ratio  filename
     0:34.18        6039980 B   ---   --   ---xx   flac  0.3708  boh2013-04-28s1t01.flac
     2:58.74       31573292 B   ---   --   ---xx   flac  0.4944  boh2013-04-28s1t02.flac
     4:45.43       50375180 B   ---   --   ---xx   flac  0.4784  boh2013-04-28s1t03.flac
     3:48.72       40388588 B   ---   --   ---xx   flac  0.5066  boh2013-04-28s1t04.flac
     4:14.32       44880908 B   ---   --   ---xx   flac  0.5359  boh2013-04-28s1t05.flac
     4:34.67       48491228 B   ---   --   ---xx   flac  0.5244  boh2013-04-28s1t06.flac
     4:16.43       45259580 B   ---   --   ---xx   flac  0.5296  boh2013-04-28s1t07.flac
     5:44.28       60747500 B   ---   --   ---xx   flac  0.4569  boh2013-04-28s1t08.flac
     3:10.33       33593660 B   ---   --   ---xx   flac  0.4693  boh2013-04-28s1t09.flac
     0:33.27        5884748 B   ---   --   ---xx   flac  0.4586  boh2013-04-28s2t01.flac
     3:24.08       36004460 B   ---   --   ---xx   flac  0.5850  boh2013-04-28s2t02.flac
     2:53.70       30681884 B   ---   --   ---xx   flac  0.6307  boh2013-04-28s2t03.flac
     3:26.10       36361964 B   ---   --   ---xx   flac  0.6671  boh2013-04-28s2t04.flac
     3:33.36       37657916 B   ---   --   ---xx   flac  0.6251  boh2013-04-28s2t05.flac
     3:05.15       32669324 B   ---   --   ---xx   flac  0.6630  boh2013-04-28s2t06.flac
     3:22.03       35639900 B   ---   --   ---xx   flac  0.5669  boh2013-04-28s2t07.flac
     5:13.35       55295564 B   ---   --   ---xx   flac  0.6117  boh2013-04-28s2t08.flac
     4:05.42       43316828 B   ---   --   ---xx   flac  0.5765  boh2013-04-28s2t09.flac
     5:29.30       58106204 B   ---   --   ---xx   flac  0.6291  boh2013-04-28s2t10.flac
     5:23.16       57014876 B   ---   --   ---xx   flac  0.6128  boh2013-04-28s2t11.flac
     4:06.41       43490876 B   ---   --   ---xx   flac  0.6666  boh2013-04-28s2t12.flac
     3:36.24       38158892 B   ---   --   ---xx   flac  0.6287  boh2013-04-28s2t13.flac
     4:05.28       43283900 B   ---   --   ---xx   flac  0.5213  boh2013-04-28s2t14.flac
     4:09.74       44097692 B   ---   --   ---xx   flac  0.5953  boh2013-04-28s2t15.flac
     4:26.54       47049452 B   ---   --   ---xx   flac  0.5653  boh2013-04-28s2t16.flac
     3:26.47       36448988 B   ---   --   ---xx   flac  0.6116  boh2013-04-28s2t17.flac
     4:14.37       44892668 B   ---   --   ---xx   flac  0.5820  boh2013-04-28s2t18.flac
     9:15.52       98024348 B   ---   --   ---xx   flac  0.5981  boh2013-04-28s2t19.flac
     5:20.18       56490380 B   ---   --   ---xx   flac  0.6561  boh2013-04-28s2t20.flac
   117:20.27     1241920780 B                            0.5757  (29 files)

ffp
boh2013-04-28s1t01.flac:11379f0f9a1a8b97d27d8954c2393762
boh2013-04-28s1t02.flac:bc9bc523b235b4da1aa5780c325e3975
boh2013-04-28s1t03.flac:df6e01b22ee31032069e3260e3705619
boh2013-04-28s1t04.flac:6ee2720b0b7c78e9f91d70d22565707e
boh2013-04-28s1t05.flac:bdc21f1e71e7326af6af5dcbf4768540
boh2013-04-28s1t06.flac:c68ac93b65e8e0cd516b4430c6fa7155
boh2013-04-28s1t07.flac:4c00cc4ed981c0be7064a84b9a8cc16d
boh2013-04-28s1t08.flac:82dac9485f9599647552f0ff44c64700
boh2013-04-28s1t09.flac:b3bb4d2bcabdf709ac08a96f0da71c44
boh2013-04-28s2t01.flac:e8c22cf5310a513545a0ae93ff24cdc0
boh2013-04-28s2t02.flac:f18d7a215844b943d52d2dec7eb86995
boh2013-04-28s2t03.flac:88e6b5d2488dc93ac0b65727230b169b
boh2013-04-28s2t04.flac:41cd2774d32faed808b3ccd7dffae2a6
boh2013-04-28s2t05.flac:3fbd3c0bedd4b6ffa1fc2c99509cd316
boh2013-04-28s2t06.flac:eabcd2d2d17bdbfca8b5a9892080c10e
boh2013-04-28s2t07.flac:3b0d42320a0714e10f7d0cdf305d661a
boh2013-04-28s2t08.flac:f14173dbde34e30e7983cb563276f387
boh2013-04-28s2t09.flac:f15b70138e12b1622f3636de4af6c792
boh2013-04-28s2t10.flac:c51939ca29e82ce107019d3838eff163
boh2013-04-28s2t11.flac:f62574da045d0d6eac9c59a4f54340c3
boh2013-04-28s2t12.flac:8f27a41c8d69ce30049d53913b325916
boh2013-04-28s2t13.flac:c88d07f115d1811be222c22d8e8c7920
boh2013-04-28s2t14.flac:3b1dcfcfe285978e6284bbcb11db9e4f
boh2013-04-28s2t15.flac:16b9fffcfd3826dd681630ee23793c09
boh2013-04-28s2t16.flac:14f06f78d414990a7105c06bf2de15b9
boh2013-04-28s2t17.flac:14a094ce9cfb8720117f6e03f943875f
boh2013-04-28s2t18.flac:36b82deb0f8034dad0660a86de1e10e8
boh2013-04-28s2t19.flac:ffe0cbb0260fe03443d2b4fad614bdf0
boh2013-04-28s2t20.flac:1f54c4959509c870b572ad282d37c864

Comments
Date User Comment
etreedb.org
For administrative requests email contact@etreedb.org
This website written by Tom H Anderson and maintained by the etreedb.org community.

Cached: Tue, 24 Nov 2020 15:24:58 EST