Tortoise 09/07/10
Paradise Rock Club, Boston, MA
Source # 130292
Entered by Shawnee
Checksums ffp
Disc Counts 0 / 0
Media Size
Date Circulated
Date Added
09/08/2010
06/12/2014
Download Text | Download Zip
Other Sources
Source Summary
Tortoise Paradise Rock Club Boston, Massachusetts
Tortoise
Paradise Rock Club
Boston, Massachusets
9/7/2010

Source: Schoeps CCM4V\'S(din)>Lunatec V2>Benchmark AD2K>
Sound Devices 722 (24/48)
FOB/DRFC/KFC/ZFC/AARP Clamped On Pole On Balcony, 15\' From Stage
DSP: Sound Devices 722>Sound Forge 9.0>CD Wave>flac(16)
Recorded By: Z-Man
Seeded By: Z-Man

Disc I

01 Tuning
02 High Class Slim Came Floatin\'In
03 Minors >
04 Ero
05 Ben
06 Monument Six One Thousand
07 Ins
08 Riv
09 Sal

Disc II

01 Bridge
02 Gigantes
03 Cof
04 Cre
Encore I :
05 Thanks/Band Introductions
06 Charteroak Foundation >
07 Dot
08 Hil
Encore II :
09 Thanks
10 Sen

Flac Fingerprint

totoise2010-09-07d01t01.flac:0afc07f9bf5be060b1fd64aba7053e35
totoise2010-09-07d01t02.flac:a4c0664a3a85632a503d6eb832925b05
totoise2010-09-07d01t03.flac:1f713c8450d64539fd78c150d7ffbf27
totoise2010-09-07d01t04.flac:5f6de59a4166f38d8ddc9b7d6b982281
totoise2010-09-07d01t05.flac:88d6dcd849ea2351faabad5f49ad453e
totoise2010-09-07d01t06.flac:5d97a690451392eb7324db00e7bafd4b
totoise2010-09-07d01t07.flac:b3eaa6af58eb3407f856e2dc06a92de9
totoise2010-09-07d01t08.flac:5325fdb3cd646aceecfe462026198dac
totoise2010-09-07d01t09.flac:81fa0a26a288b00acf24936d72d5836d
totoise2010-09-07d02t01.flac:9355b78212936c84daa9c12f1aca26a5
totoise2010-09-07d02t02.flac:333f271a4c6b9aba6e0da73f4f300111
totoise2010-09-07d02t03.flac:522655ced3face4640107f200b5ff0c4
totoise2010-09-07d02t04.flac:4f6521bc12fda8e082d2413c29f41654
totoise2010-09-07d02t05.flac:7ba16ad12b0a960898fa5b16e4c7405a
totoise2010-09-07d02t06.flac:2bdba82d39853acd77a5058aa81ec9b1
totoise2010-09-07d02t07.flac:e20501b0496479ebf1808712fa23368c
totoise2010-09-07d02t08.flac:df35005bf1393d90f5c8e00426542d77
totoise2010-09-07d02t09.flac:36f71fc0d05542c79857239dd668bfd1
totoise2010-09-07d02t10.flac:f7584bd7743502a4d4b629115fa9655f

Shntool

    length     expanded size    cdr  WAVE problems  fmt   ratio  filename
     0:31.10        5491964 B   ---   --   ---xx   flac  0.3518  totoise2010-09-07d01t01.flac
     8:01.68       85008380 B   ---   --   ---xx   flac  0.5021  totoise2010-09-07d01t02.flac
     5:29.69       58197932 B   ---   --   ---xx   flac  0.5005  totoise2010-09-07d01t03.flac
     4:18.24       45567692 B   ---   --   ---xx   flac  0.5319  totoise2010-09-07d01t04.flac
     4:38.43       49140380 B   ---   --   ---xx   flac  0.4834  totoise2010-09-07d01t05.flac
     4:20.42       45962828 B   ---   --   ---xx   flac  0.5597  totoise2010-09-07d01t06.flac
     5:14.16       55427276 B   ---   --   ---xx   flac  0.5843  totoise2010-09-07d01t07.flac
     5:44.69       60843932 B   ---   --   ---xx   flac  0.3966  totoise2010-09-07d01t08.flac
     4:55.63       52186220 B   ---   --   ---xx   flac  0.5427  totoise2010-09-07d01t09.flac
     5:05.21       53851436 B   ---   --   ---xx   flac  0.4362  totoise2010-09-07d02t01.flac
     6:17.65       66655724 B   ---   --   ---xx   flac  0.5587  totoise2010-09-07d02t02.flac
     3:41.67       39142028 B   ---   --   ---xx   flac  0.5810  totoise2010-09-07d02t03.flac
     7:31.39       79648172 B   ---   --   ---xx   flac  0.5442  totoise2010-09-07d02t04.flac
     1:18.48       13872140 B   ---   --   ---xx   flac  0.3615  totoise2010-09-07d02t05.flac
     5:13.58       55349660 B   ---   --   ---xx   flac  0.5194  totoise2010-09-07d02t06.flac
     5:31.39       58480172 B   ---   --   ---xx   flac  0.5027  totoise2010-09-07d02t07.flac
     5:43.66       60660476 B   ---   --   ---xx   flac  0.4886  totoise2010-09-07d02t08.flac
     0:26.60        4727564 B   ---   --   ---xx   flac  0.3833  totoise2010-09-07d02t09.flac
     9:14.71       97892636 B   ---   --   ---xx   flac  0.5371  totoise2010-09-07d02t10.flac
    93:21.38      988106612 B                            0.5124  (19 files)






ffp
totoise2010-09-07d01t01.flac:0afc07f9bf5be060b1fd64aba7053e35
totoise2010-09-07d01t02.flac:a4c0664a3a85632a503d6eb832925b05
totoise2010-09-07d01t03.flac:1f713c8450d64539fd78c150d7ffbf27
totoise2010-09-07d01t04.flac:5f6de59a4166f38d8ddc9b7d6b982281
totoise2010-09-07d01t05.flac:88d6dcd849ea2351faabad5f49ad453e
totoise2010-09-07d01t06.flac:5d97a690451392eb7324db00e7bafd4b
totoise2010-09-07d01t07.flac:b3eaa6af58eb3407f856e2dc06a92de9
totoise2010-09-07d01t08.flac:5325fdb3cd646aceecfe462026198dac
totoise2010-09-07d01t09.flac:81fa0a26a288b00acf24936d72d5836d
totoise2010-09-07d02t01.flac:9355b78212936c84daa9c12f1aca26a5
totoise2010-09-07d02t02.flac:333f271a4c6b9aba6e0da73f4f300111
totoise2010-09-07d02t03.flac:522655ced3face4640107f200b5ff0c4
totoise2010-09-07d02t04.flac:4f6521bc12fda8e082d2413c29f41654
totoise2010-09-07d02t05.flac:7ba16ad12b0a960898fa5b16e4c7405a
totoise2010-09-07d02t06.flac:2bdba82d39853acd77a5058aa81ec9b1
totoise2010-09-07d02t07.flac:e20501b0496479ebf1808712fa23368c
totoise2010-09-07d02t08.flac:df35005bf1393d90f5c8e00426542d77
totoise2010-09-07d02t09.flac:36f71fc0d05542c79857239dd668bfd1
totoise2010-09-07d02t10.flac:f7584bd7743502a4d4b629115fa9655f

Comments
Date User Comment
etreedb.org
For administrative requests email contact@etreedb.org
This website written by Tom H Anderson and maintained by the etreedb.org community.

Cached: Sat, 25 Jun 2022 04:06:12 EDT