Grateful Dead 06/25/78
Autzen Stadium, University Of Oregon, Eugene, OR
Source # 130649
Entered by Matt Vernon
Checksums flac-md5 , ffp
Disc Counts 2 / 2
Media Size Compressed: 666.96 MB (699353334 bytes)
Date Circulated
Date Added
07/15/2014
07/15/2014
Source Summary
flac16; Recording Info: SBD > MC? > ? > DAT > CD; Transfer Info: CD > WAV > Sound Forge 10 > TLH > FLAC; Remastered, retracked upgrade of shnid 7048.
THE GRATEFUL DEAD
University Of Oregon
Eugene, OR
June 25, 1978

Recording Info:
SBD > MC? > ? > DAT > CD
Transfer Info:
CD > WAV > Sound Forge 10 > TLH > FLAC

FIXES AND NOTES:
Remastered, retracked upgrade of shnid 7048.
Patches not possible...no available source.
Oversaturated vocals on Disc 2, tracks 5, 6. Slightly better.
Shnid 7048 sounded muddy with exagerated bass. Now fixed.
This is a big improvement with better presence and clarity.

Disc 2, track 2 fades out.
Disc 2, track 3 fades in

Mastered and tracked by Bill Guarneri, July 15, 2014

Set 1 Disc 1
01. Promised Land
02. They Love Each Other
03. Me And My Uncle >
04. Big River
05. Candyman
06. Passenger
07. Peggy O
08. Minglewood Blues

Set 2 Disc 1
09. Samson And Delilah
10. Friend Of The Devil
11. Bobby Comment

Set 2 Disc 2
01. Estimated Prophet >
02. Eyes Of The World
03. Drums > *
04. Space > *
05. Not Fade Away
06. Goin' Down The Road Feelin' Bad >
07. Around And Around
Encore;
08. U. S. Blues

*Features Ken Babbs And The Thunder Machine

length     expanded size    cdr  WAVE problems  fmt   ratio  filename
     4:21.27       46103948 B   ---   --   ---xx   flac  0.5135  gd1978-06-25d1t01.flac
     6:16.57       66460508 B   ---   --   ---xx   flac  0.4389  gd1978-06-25d1t02.flac
     3:06.26       32871596 B   ---   --   ---xx   flac  0.4649  gd1978-06-25d1t03.flac
     6:29.67       68777228 B   ---   --   ---xx   flac  0.4399  gd1978-06-25d1t04.flac
     7:46.33       82280060 B   ---   --   ---xx   flac  0.4241  gd1978-06-25d1t05.flac
     4:53.51       51805196 B   ---   --   ---xx   flac  0.4995  gd1978-06-25d1t06.flac
     8:15.53       87442700 B   ---   --   ---xx   flac  0.4510  gd1978-06-25d1t07.flac
     5:47.62       61356668 B   ---   --   ---xx   flac  0.5259  gd1978-06-25d1t08.flac
     7:53.73       83608940 B   ---   --   ---xx   flac  0.4981  gd1978-06-25d1t09.flac
     7:43.33       81750860 B   ---   --   ---xx   flac  0.4566  gd1978-06-25d1t10.flac
     0:34.68        6157580 B   ---   --   ---xx   flac  0.3310  gd1978-06-25d1t11.flac
    13:19.44      141047132 B   ---   --   ---xx   flac  0.4950  gd1978-06-25d2t01.flac
    11:33.54      122372252 B   ---   --   ---xx   flac  0.4914  gd1978-06-25d2t02.flac
     9:04.56       96093356 B   ---   --   ---xx   flac  0.4964  gd1978-06-25d2t03.flac
     7:05.46       75078236 B   ---   --   ---xx   flac  0.4916  gd1978-06-25d2t04.flac
     9:15.13       97932620 B   ---   --   ---xx   flac  0.5100  gd1978-06-25d2t05.flac
     8:27.63       89583020 B   ---   --   ---xx   flac  0.5239  gd1978-06-25d2t06.flac
     8:25.31       89154956 B   ---   --   ---xx   flac  0.4899  gd1978-06-25d2t07.flac
     5:48.62       61533068 B   ---   --   ---xx   flac  0.5263  gd1978-06-25d2t08.flac
   136:11.19     1441409924 B                            0.4852  (19 files)



ae820f0ec9d23b791d26659e38884161 *gd1978-06-25d1t01.flac
b1af9e3d607ec5072bbe60974911df61 *gd1978-06-25d1t02.flac
8e79295d07434148590503a1d20d8b45 *gd1978-06-25d1t03.flac
0b0281dd2beb44c6833a291e3ce58445 *gd1978-06-25d1t04.flac
2714c099995181b4fbfc13fedbd04910 *gd1978-06-25d1t05.flac
aa85ac35f29a549ee344b5c3f89a542e *gd1978-06-25d1t06.flac
92fd30e73522af1a990aa342230aa01b *gd1978-06-25d1t07.flac
6aa3057b7866aad4ba71651f689089f6 *gd1978-06-25d1t08.flac
d454cf03e20f59ecea7f975161744979 *gd1978-06-25d1t09.flac
d0ee5499f9b500c60ec60515bed1dfa7 *gd1978-06-25d1t10.flac
9a542aafaff0303c5d75580128e846b3 *gd1978-06-25d1t11.flac
b00283f2e8879fd7bccc64054617477e *gd1978-06-25d2t01.flac
c94b39fb5e515fc3daee310f3b1b881c *gd1978-06-25d2t02.flac
212efbaee4fff89df340f9fb58b2ceef *gd1978-06-25d2t03.flac
097c9ccc639e5e0347ad1bb3c8b3494f *gd1978-06-25d2t04.flac
8eeb5f9c17d12e58542cfca6aae07fa0 *gd1978-06-25d2t05.flac
ef926e7aa1a27d3a2c397cfd07016994 *gd1978-06-25d2t06.flac
67d2ab5d2958f32f4f9084c45a339e07 *gd1978-06-25d2t07.flac
e7c75a2526938518c4073ce645ba8447 *gd1978-06-25d2t08.flac
ffp
gd1978-06-25d1t01.flac:e1bdd177862bb2dd30ee18565c8d8d80
gd1978-06-25d1t02.flac:994270b36ba276a39ebd8c791435fbba
gd1978-06-25d1t03.flac:6fea47886a296ae3571a05451fac8936
gd1978-06-25d1t04.flac:fca391327649b83623a6f13c0aab824a
gd1978-06-25d1t05.flac:c0d77ea9f377201debc31eb5dfd8005b
gd1978-06-25d1t06.flac:3cbc97b19aca1fcc8cfa6eea783aa47f
gd1978-06-25d1t07.flac:99b5cd29a437975c49b31a0bb4e56c0b
gd1978-06-25d1t08.flac:da33e6bece4bdba8bdefe74632d99fdc
gd1978-06-25d1t09.flac:4b99c2f9f8694ff8ff57ab35f780db9c
gd1978-06-25d1t10.flac:1aa582be9747fc36c59158979cb0c195
gd1978-06-25d1t11.flac:c31699c5fff0f99ae829e2a59b94dfd6
gd1978-06-25d2t01.flac:7fd22c60908b482bcc982819f9461f65
gd1978-06-25d2t02.flac:6eb901843ff8bbcb362b8bc1501983b9
gd1978-06-25d2t03.flac:7c3b02bd7152b9baff84d213118c65ac
gd1978-06-25d2t04.flac:dd3c6a6695b36adfe0285bc0c844ee4d
gd1978-06-25d2t05.flac:02313b671b8f1f9d71e4a0bb97fe27ac
gd1978-06-25d2t06.flac:e599751a68367d23f25771eee0ff2274
gd1978-06-25d2t07.flac:6e42079fdc439eac40fabf3299802b65
gd1978-06-25d2t08.flac:f777fc23d618c3c2f0dd26798823996a

Comments
Other Sources (comments)
SBD> MC> ?> D> CD> EAC>... (0) flac16/48kHz ; Mark... (0) flac24 ; Mark Severson's... (0)
Date User Comment
07/22/2014 JazzFanatic Pitch and track timing was also adjusted. Now correct.
etreedb.org
For administrative requests email contact@etreedb.org
This website written by Tom H Anderson and maintained by the etreedb.org community.

Cached: Tue, 17 Sep 2019 09:24:12 EDT