Source # 130864
Entered by ziko
Checksums ffp
Disc Counts 0 / 0
Media Size
Date Circulated
Date Added
11/03/2012
08/04/2014
Download Text | Download Zip
Other Sources
Source Summary
Source: AKG c414b-ULS (cardioid din dfc 1st balcony)>V3 (24/96)>sd722 Transfer: firewire>wavelab 6.10 [Crystal Resampler (downsample) iZotope Ozone 4 (dither)]>CDWav (splits)>FLACFrontend>foobar2000 (tagging)
Col. Bruce Hampton & Pharaoh's Kitchen
2012-10-18
The Tabernacle, Atlanta,Ga.

Source: AKG c414b-ULS (cardioid din dfc 1st balcony)>V3 (24/96)>sd722
Transfer: firewire>wavelab 6.10 [Crystal Resampler (downsample) iZotope Ozone 4 (dither)]>CDWav (splits)>FLACFrontend>foobar2000 (tagging)
taped and transferred by John Barren
A Team Dirty South Recording

Set 1
01. Fixin' to Die
02. Feelin' Good
03. ?Midnight Walker?
04. Aint' Nothin' You Can Do
05. Surrender
06. There Was a Time
07. Right Now
08. Pharaoh's Kitchen
09. I'm So Glad

Opened for Gov't Mule

Shntool
    length     expanded size    cdr  WAVE problems  fmt   ratio  filename
     4:16.29       45226652 B   ---   --   ---xx   flac  0.5174  colbrucepharaohskitchen2012-10-18t01.flac
     4:36.53       48811100 B   ---   --   ---xx   flac  0.5566  colbrucepharaohskitchen2012-10-18t02.flac
     5:44.59       60820412 B   ---   --   ---xx   flac  0.5494  colbrucepharaohskitchen2012-10-18t03.flac
     5:08.15       54366524 B   ---   --   ---xx   flac  0.5189  colbrucepharaohskitchen2012-10-18t04.flac
     5:40.48       60088940 B   ---   --   ---xx   flac  0.4959  colbrucepharaohskitchen2012-10-18t05.flac
     6:07.52       64861148 B   ---   --   ---xx   flac  0.5742  colbrucepharaohskitchen2012-10-18t06.flac
     4:33.28       48223100 B   ---   --   ---xx   flac  0.4974  colbrucepharaohskitchen2012-10-18t07.flac
     7:07.64       75473372 B   ---   --   ---xx   flac  0.5807  colbrucepharaohskitchen2012-10-18t08.flac
     6:36.61       69997916 B   ---   --   ---xx   flac  0.5599  colbrucepharaohskitchen2012-10-18t09.flac
    49:52.34      527869164 B                            0.5423  (9 files)


ffp
colbrucepharaohskitchen2012-10-18t01.flac:cf27a3873a5cf77bed93af7c08ce12be
colbrucepharaohskitchen2012-10-18t02.flac:7af57564b2dd26539c7eaf662cec5ac8
colbrucepharaohskitchen2012-10-18t03.flac:5fa4a3b44d1678137b44a094b2ffcac4
colbrucepharaohskitchen2012-10-18t04.flac:21e76ae34e9dbbcea5214e001c5e61ca
colbrucepharaohskitchen2012-10-18t05.flac:2446189034fbe51573a1fa8d8b473710
colbrucepharaohskitchen2012-10-18t06.flac:77bc50de789b463c0ddf8787fc95eb56
colbrucepharaohskitchen2012-10-18t07.flac:022c781ce540de9a0e8e8a5ce690ace9
colbrucepharaohskitchen2012-10-18t08.flac:3e2e5ea6ea374b77aaf68afe3583d068
colbrucepharaohskitchen2012-10-18t09.flac:c9a11abbbd626c20b966d4aba6d79717

Comments
Date User Comment
etreedb.org
For administrative requests email contact@etreedb.org
This website written by Tom H Anderson and maintained by the etreedb.org community.

Cached: Tue, 24 Nov 2020 01:48:20 EST