Col. Bruce Hampton 02/01/13
Smith's Olde Bar, Atlanta, GA
Source # 131030
Entered by ziko
Checksums ffp
Disc Counts 0 / 0
Media Size
Date Circulated
Date Added
02/02/2013
08/25/2014
Download Text | Download Zip

Other Sources
Source Summary
Source: Schoeps CCM4V'S(din)>Lunatec V2>Benchmark AD2K> Sound Devices 722 (24/48) BFOB/DFC/KFC/ZFC/AARP 15' From Stage, 7' High DSP: Sound Devices 722>Sound Forge 9.0>CD Wave>flac(16)
Col. Bruce Hampton
Smith's Olde Bar
Atlanta, Georgia
2/1/2013

Source: Schoeps CCM4V'S(din)>Lunatec V2>Benchmark AD2K>
Sound Devices 722 (24/48)
BFOB/DFC/KFC/ZFC/AARP 15' From Stage, 7' High
DSP: Sound Devices 722>Sound Forge 9.0>CD Wave>flac(16)
Recorded By: Z-Man
Seeded By: Z-Man

Disc I 1st Set

01 Fixin' To Die Rag
02 It's About Time The Grogans Have Arrvived
03 Ain't Nothin' you Can Do >
04 There Was A Time >
05 Lucky Old Son
06 Let's Go Down To The Pharoah's Kitchen >
07 Let Your Soul Right Now

Disc II 2nd Set

01 Jezz Graham Banter/Tuning
02 *Let The Good Times Roll
03 *Basically Freightened >
04 *Feelin' Good >
05 *Smokestack Lightnin' >
06 *Time Is Free >
07 *I'm So Glad
08 *Goodnight Irene

* With Denny Walley On Slide Guitar

Col. Bruce Hampton - Guitar And Vocals
Jez Graham - Keyboards And Vocals
AJ Ghent - Slide Steel Guitar And Vocals
Sonny Williams - Drums
Lew Soloff - Trumpet
Sonny Hinton - Drums

Flac Fingerprint

colbruce2013-02-01d01t01.flac:a024d1e1127c9a54898f694a1316ade9
colbruce2013-02-01d01t02.flac:83593171300b55649a0248ffea8fc4a9
colbruce2013-02-01d01t03.flac:9e38342f99d8a8e3cfb52dd73b5400c2
colbruce2013-02-01d01t04.flac:d1c065ac14f8b3c81a0f87939c072975
colbruce2013-02-01d01t05.flac:005d1993a7b805edb9dc3f25f468ef94
colbruce2013-02-01d01t06.flac:8221767ef0cf54a5541af5e2832eca85
colbruce2013-02-01d01t07.flac:24e147c86e1c395d57b6cb18e6219fa0
colbruce2013-02-01d02t01.flac:276dbc6a3fb2f7d6dd811e2048dcf2e0
colbruce2013-02-01d02t02.flac:fc5168f8c753659683cd4d6f24de9ec8
colbruce2013-02-01d02t03.flac:53673c8ba56cf0929ba3133ded6e18e1
colbruce2013-02-01d02t04.flac:c55bb219eeefdd6c5b955f366b943718
colbruce2013-02-01d02t05.flac:977ca8cf3574ba7e7550ebcf23134760
colbruce2013-02-01d02t06.flac:bab55dc65233ef8d8960d8682238979c
colbruce2013-02-01d02t07.flac:9eb366ac13b76dbe516ad48ecbe63c21
colbruce2013-02-01d02t08.flac:ea9fe705ed1efb74941d9026c4befc18

Shntool

    length     expanded size    cdr  WAVE problems  fmt   ratio  filename
     7:49.53       82856300 B   ---   --   ---xx   flac  0.5232  colbruce2013-02-01d01t01.flac
     9:01.06       95446556 B   ---   --   ---xx   flac  0.4820  colbruce2013-02-01d01t02.flac
     7:01.48       74377340 B   ---   --   ---xx   flac  0.4765  colbruce2013-02-01d01t03.flac
     7:55.66       83945276 B   ---   --   ---xx   flac  0.5618  colbruce2013-02-01d01t04.flac
     6:25.70       68078684 B   ---   --   ---xx   flac  0.4364  colbruce2013-02-01d01t05.flac
     7:19.09       77460812 B   ---   --   ---xx   flac  0.5273  colbruce2013-02-01d01t06.flac
    10:29.03      110962700 B   ---   --   ---xx   flac  0.5186  colbruce2013-02-01d01t07.flac
     1:11.05       12536204 B   ---   --   ---xx   flac  0.3843  colbruce2013-02-01d02t01.flac
     6:52.16       72714476 B   ---   --   ---xx   flac  0.5485  colbruce2013-02-01d02t02.flac
    11:11.05      118376204 B   ---   --   ---xx   flac  0.4970  colbruce2013-02-01d02t03.flac
     8:55.08       94392860 B   ---   --   ---xx   flac  0.5709  colbruce2013-02-01d02t04.flac
     6:12.53       65745500 B   ---   --   ---xx   flac  0.4860  colbruce2013-02-01d02t05.flac
    10:25.74      110424092 B   ---   --   ---xx   flac  0.5436  colbruce2013-02-01d02t06.flac
    11:09.23      118065740 B   ---   --   ---xx   flac  0.5443  colbruce2013-02-01d02t07.flac
     2:16.48       24103340 B   ---   --   ---xx   flac  0.4495  colbruce2013-02-01d02t08.flac
   114:16.37     1209486084 B                            0.5164  (15 files)





















ffp
colbruce2013-02-01d01t01.flac:a024d1e1127c9a54898f694a1316ade9
colbruce2013-02-01d01t02.flac:83593171300b55649a0248ffea8fc4a9
colbruce2013-02-01d01t03.flac:9e38342f99d8a8e3cfb52dd73b5400c2
colbruce2013-02-01d01t04.flac:d1c065ac14f8b3c81a0f87939c072975
colbruce2013-02-01d01t05.flac:005d1993a7b805edb9dc3f25f468ef94
colbruce2013-02-01d01t06.flac:8221767ef0cf54a5541af5e2832eca85
colbruce2013-02-01d01t07.flac:24e147c86e1c395d57b6cb18e6219fa0
colbruce2013-02-01d02t01.flac:276dbc6a3fb2f7d6dd811e2048dcf2e0
colbruce2013-02-01d02t02.flac:fc5168f8c753659683cd4d6f24de9ec8
colbruce2013-02-01d02t03.flac:53673c8ba56cf0929ba3133ded6e18e1
colbruce2013-02-01d02t04.flac:c55bb219eeefdd6c5b955f366b943718
colbruce2013-02-01d02t05.flac:977ca8cf3574ba7e7550ebcf23134760
colbruce2013-02-01d02t06.flac:bab55dc65233ef8d8960d8682238979c
colbruce2013-02-01d02t07.flac:9eb366ac13b76dbe516ad48ecbe63c21
colbruce2013-02-01d02t08.flac:ea9fe705ed1efb74941d9026c4befc18

Comments
Date User Comment
etreedb.org
For administrative requests email contact@etreedb.org
This website written by Tom H Anderson and maintained by the etreedb.org community.

Cached: Wed, 25 Nov 2020 03:50:32 EST